<?xml version="1.0" standalone="no"?>
<!DOCTYPE svg PUBLIC "-//W3C//DTD SVG 1.1//EN" "http://www.w3.org/Graphics/SVG/1.1/DTD/svg11.dtd" >
<svg xmlns="http://www.w3.org/2000/svg" xmlns:xlink="http://www.w3.org/1999/xlink" version="1.1">
<metadata>
Created by FontForge 20170731 at Tue Aug 14 21:29:12 2007
 By Aleksey,,,
Copyright (C) 2000, 2007 Hoefler &#38; Frere-Jones. http://www.typography.com
</metadata>
<defs>
<font id="Gotham-MediumItalic" horiz-adv-x="500" >
  <font-face 
    font-family="Gotham Medium"
    font-weight="350"
    font-style="italic"
    font-stretch="normal"
    units-per-em="1000"
    panose-1="2 0 6 3 4 0 0 2 0 4"
    ascent="800"
    descent="-200"
    x-height="528"
    cap-height="700"
    bbox="-131 -275 1221 1008"
    underline-thickness="20"
    underline-position="-173"
    slope="-12"
    unicode-range="U+0020-FB04"
  />
<missing-glyph 
d="M0 -200v1000h500v-1000h-500zM71 750l179 -390l179 390h-358zM50 -76l172 376l-172 376v-752zM450 676l-172 -376l172 -376v752zM250 240l-179 -390h358z" />
    <glyph glyph-name="f_f" unicode="ff" horiz-adv-x="793" 
d="M429 0l114 424h-67l28 104h67l11 43q41 164 200 164q61 0 104 -18l-27 -101q-38 16 -74 16q-66 0 -87 -74l-8 -30h146l-28 -104h-144l-114 -424h-121zM33 0l114 424h-67l28 104h67l10 43q44 164 201 164q61 0 104 -18l-27 -101q-38 16 -74 16q-67 0 -87 -74l-8 -30h146
l-28 -104h-144l-114 -424h-121z" />
    <glyph glyph-name="fi" unicode="fi" horiz-adv-x="683" 
d="M567 609l32 115h130l-31 -115h-131zM33 0l114 424h-67l28 104h67l10 43q44 164 201 164q61 0 104 -18l-27 -101q-38 16 -74 16q-67 0 -87 -74l-8 -30h146l-28 -104h-144l-114 -424h-121zM408 0l142 528h121l-142 -528h-121z" />
    <glyph glyph-name="fl" unicode="fl" horiz-adv-x="683" 
d="M33 0l114 424h-67l28 104h67l10 43q44 164 201 164q61 0 104 -18l-27 -101q-38 16 -74 16q-67 0 -87 -74l-8 -30h146l-28 -104h-144l-114 -424h-121zM408 0l196 730h121l-196 -730h-121z" />
    <glyph glyph-name="f_f_i" unicode="ffi" horiz-adv-x="1079" 
d="M964 609l31 115h130l-31 -115h-130zM429 0l114 424h-67l28 104h67l11 43q41 164 200 164q61 0 104 -18l-27 -101q-38 16 -74 16q-66 0 -87 -74l-8 -30h146l-28 -104h-144l-114 -424h-121zM33 0l114 424h-67l28 104h67l10 43q44 164 201 164q61 0 104 -18l-27 -101
q-38 16 -74 16q-67 0 -87 -74l-8 -30h146l-28 -104h-144l-114 -424h-121zM804 0l142 528h121l-142 -528h-121z" />
    <glyph glyph-name="f_f_l" unicode="ffl" horiz-adv-x="1079" 
d="M429 0l114 424h-67l28 104h67l11 43q41 164 200 164q61 0 104 -18l-27 -101q-38 16 -74 16q-66 0 -87 -74l-8 -30h146l-28 -104h-144l-114 -424h-121zM33 0l114 424h-67l28 104h67l10 43q44 164 201 164q61 0 104 -18l-27 -101q-38 16 -74 16q-67 0 -87 -74l-8 -30h146
l-28 -104h-144l-114 -424h-121zM804 0l196 730h121l-196 -730h-121z" />
    <glyph glyph-name=".notdef" 
d="M0 -200v1000h500v-1000h-500zM71 750l179 -390l179 390h-358zM50 -76l172 376l-172 376v-752zM450 676l-172 -376l172 -376v752zM250 240l-179 -390h358z" />
    <glyph glyph-name=".null" horiz-adv-x="0" 
 />
    <glyph glyph-name="nonmarkingreturn" horiz-adv-x="333" 
 />
    <glyph glyph-name="space" unicode=" " horiz-adv-x="300" 
 />
    <glyph glyph-name="exclam" unicode="!" horiz-adv-x="303" 
d="M106 221l81 444l10 35h142l-10 -35l-156 -444h-67zM14 0l36 137h134l-37 -137h-133z" />
    <glyph glyph-name="quotedbl" unicode="&#x22;" horiz-adv-x="493" 
d="M323 401l87 299h138l-2 -5l-159 -294h-64zM100 401l86 299h138l-1 -5l-159 -294h-64z" />
    <glyph glyph-name="numbersign" unicode="#" horiz-adv-x="687" 
d="M55 0l56 161h-93l28 104h102l60 174h-105l28 104h113l55 157h107l-55 -157h164l55 157h106l-54 -157h93l-27 -104h-103l-60 -174h105l-27 -104h-115l-56 -161h-106l56 161h-164l-56 -161h-107zM255 265h163l61 174h-164z" />
    <glyph glyph-name="dollar" unicode="$" horiz-adv-x="631" 
d="M170 -98l31 106q-132 26 -205 119l90 76q62 -71 150 -90l56 195q-86 32 -127.5 72t-41.5 110q0 90 75.5 150t186.5 60q13 0 19 -1l18 59h87l-20 -70q93 -23 159 -90l-83 -82q-52 49 -111 66l-53 -186q83 -31 124 -72.5t41 -110.5q0 -94 -78 -153.5t-196 -59.5h-6l-29 -98
h-87zM328 424l48 169q-58 1 -92.5 -25t-34.5 -65q0 -26 17.5 -43.5t61.5 -35.5zM314 106q58 2 91.5 27.5t33.5 67.5q0 26 -16.5 44t-57.5 36z" />
    <glyph glyph-name="percent" unicode="%" horiz-adv-x="862" 
d="M236 346q-67 0 -108 42t-41 109q0 82 55.5 146.5t137.5 64.5q66 0 107.5 -42.5t41.5 -108.5q0 -82 -55.5 -146.5t-137.5 -64.5zM62 0l675 700h109l-676 -700h-108zM628 -8q-67 0 -108 42.5t-41 108.5q0 83 55.5 147t137.5 64q66 0 107.5 -42t41.5 -108
q0 -83 -55.5 -147.5t-137.5 -64.5zM241 420q44 0 74 41.5t30 91.5q0 38 -18.5 59.5t-52.5 21.5q-44 0 -74 -42t-30 -91q0 -38 19 -59.5t52 -21.5zM633 66q44 0 74.5 42t30.5 91q0 38 -19 60t-52 22q-44 0 -74.5 -42t-30.5 -92q0 -37 19 -59t52 -22z" />
    <glyph glyph-name="ampersand" unicode="&#x26;" horiz-adv-x="694" 
d="M532 -14l-65 90q-108 -86 -226 -86q-95 0 -155.5 49.5t-60.5 134.5q0 73 53 132.5t160 91.5q-40 67 -40 125q0 78 59.5 133.5t151.5 55.5q82 0 133 -45t51 -116q0 -130 -200 -193l98 -135q45 49 94 129l77 -52q-57 -89 -114 -152l75 -104zM341 428q79 26 110 53.5
t31 62.5q0 29 -21 50t-58 21q-41 0 -68.5 -27.5t-27.5 -65.5q0 -41 34 -94zM254 92q78 0 157 62l-123 171q-73 -23 -109 -61t-36 -82q0 -41 29.5 -65.5t81.5 -24.5z" />
    <glyph glyph-name="quotesingle" unicode="'" horiz-adv-x="269" 
d="M100 401l86 299h138l-1 -5l-159 -294h-64z" />
    <glyph glyph-name="parenleft" unicode="(" horiz-adv-x="440" 
d="M251 -142q-181 149 -181 354q0 161 102.5 293.5t293.5 209.5l44 -90q-156 -70 -236 -179t-80 -230q0 -144 131 -282z" />
    <glyph glyph-name="parenright" unicode=")" horiz-adv-x="440" 
d="M-13 -139l-44 90q156 70 236 179t80 230q0 145 -132 281l75 77q181 -149 181 -354q0 -161 -102.5 -294t-293.5 -209z" />
    <glyph glyph-name="asterisk" unicode="*" horiz-adv-x="430" 
d="M276 379l-68 17l45 115l-116 -45l-19 69l124 18l-97 78l50 50l77 -97l19 121l67 -17l-45 -115l116 45l19 -68l-124 -19l98 -77l-51 -51l-77 97z" />
    <glyph glyph-name="plus" unicode="+" horiz-adv-x="634" 
d="M218 106l51 191h-192l30 111h191l51 190h115l-51 -190h192l-30 -111h-192l-51 -191h-114z" />
    <glyph glyph-name="comma" unicode="," horiz-adv-x="293" 
d="M-45 -145l-9 51q99 14 115 94h-52l37 137h133l-31 -116q-22 -84 -68 -122t-125 -44z" />
    <glyph glyph-name="hyphen" unicode="-" horiz-adv-x="411" 
d="M53 247l32 119h296l-32 -119h-296z" />
    <glyph glyph-name="period" unicode="." horiz-adv-x="293" 
d="M9 0l37 137h133l-37 -137h-133z" />
    <glyph glyph-name="slash" unicode="/" horiz-adv-x="521" 
d="M-131 -128l692 926h116l-692 -926h-116z" />
    <glyph glyph-name="zero" unicode="0" horiz-adv-x="724" 
d="M330 -12q-120 0 -191 77.5t-71 204.5q0 80 26.5 158.5t73 141.5t118 102.5t153.5 39.5q119 0 190 -77.5t71 -204.5q0 -80 -26.5 -158.5t-72.5 -141.5t-117.5 -102.5t-153.5 -39.5zM339 99q65 0 120.5 51.5t84.5 127t29 152.5q0 79 -38 125t-106 46q-65 0 -120.5 -51.5
t-84.5 -127t-29 -152.5q0 -79 38 -125t106 -46z" />
    <glyph glyph-name="one" unicode="1" horiz-adv-x="404" 
d="M94 0l154 573l-133 -34l-2 106l207 60h85l-189 -705h-122z" />
    <glyph glyph-name="two" unicode="2" horiz-adv-x="606" 
d="M-27 0l27 100l373 268q56 40 82 74t26 71q0 40 -28.5 63t-77.5 23q-86 0 -177 -91l-77 79q113 123 259 123q102 0 165 -51.5t63 -133.5q0 -63 -36 -115t-123 -114l-260 -188h327l-29 -108h-514z" />
    <glyph glyph-name="three" unicode="3" horiz-adv-x="605" 
d="M244 -12q-179 0 -253 134l93 66q59 -89 166 -89q67 0 112 35t45 86q0 48 -41 73t-114 25h-38l-8 75l238 200h-298l29 107h466l-25 -92l-250 -204q76 -13 121 -56t45 -117q0 -104 -83.5 -173.5t-204.5 -69.5z" />
    <glyph glyph-name="four" unicode="4" horiz-adv-x="655" 
d="M331 0l42 157h-340l-13 91l498 457h119l-120 -447h100l-27 -101h-100l-42 -157h-117zM177 258h223l75 279z" />
    <glyph glyph-name="five" unicode="5" horiz-adv-x="607" 
d="M251 -11q-78 0 -147 35.5t-105 89.5l88 71q72 -86 174 -86q72 0 119.5 40t47.5 96q0 48 -37.5 78t-104.5 30q-54 0 -114 -29l-64 52l109 334h411l-31 -109h-299l-53 -161q44 16 90 16q98 0 159 -54.5t61 -144.5q0 -106 -85 -182t-219 -76z" />
    <glyph glyph-name="six" unicode="6" horiz-adv-x="642" 
d="M314 -12q-113 0 -177 64q-71 71 -71 196q0 105 36.5 200.5t101.5 160.5q105 103 245 103q129 0 212 -85l-73 -87q-64 61 -149 61q-87 0 -149 -63q-69 -69 -87 -166q27 32 75 54.5t103 22.5q94 0 155 -54.5t61 -143.5q0 -105 -82.5 -184t-200.5 -79zM315 93q68 0 112.5 43
t44.5 101q0 48 -33.5 79.5t-91.5 31.5q-71 0 -116 -41.5t-45 -98.5q0 -48 32 -80q37 -35 97 -35z" />
    <glyph glyph-name="seven" unicode="7" horiz-adv-x="600" 
d="M30 0l446 592h-346l29 108h492l-26 -93l-450 -607h-145z" />
    <glyph glyph-name="eight" unicode="8" horiz-adv-x="656" 
d="M298 -10q-112 0 -188 54.5t-76 138.5q0 78 52 127t138 67q-42 19 -67 56t-25 83q0 77 71 135.5t188 58.5q107 0 175 -52t68 -133q0 -67 -44 -114t-117 -63q50 -19 81 -58.5t31 -93.5q0 -85 -80 -145.5t-207 -60.5zM377 405q62 0 101 31t39 75q1 42 -34.5 69.5t-96.5 27.5
q-59 0 -98 -30t-40 -75q-1 -42 35 -70t94 -28zM305 91q69 0 113.5 31t45.5 80q0 44 -41.5 74t-108.5 30q-70 0 -114 -32.5t-44 -79.5q-1 -45 40.5 -74t108.5 -29z" />
    <glyph glyph-name="nine" unicode="9" horiz-adv-x="642" 
d="M243 -12q-129 0 -224 92l74 87q76 -69 156 -69q86 0 150 65q64 63 85 158q-28 -32 -75 -55t-103 -23q-95 0 -155.5 55t-60.5 146q1 111 83 189.5t201 78.5q51 0 99 -17t78 -47q71 -69 71 -206q0 -101 -37 -193.5t-103 -158.5q-102 -102 -239 -102zM343 345q69 0 114 43
t45 102q0 49 -32 81q-36 36 -97 36q-69 0 -113.5 -43.5t-44.5 -105.5q0 -50 34.5 -81.5t93.5 -31.5z" />
    <glyph glyph-name="colon" unicode=":" horiz-adv-x="296" 
d="M116 391l37 137h133l-37 -137h-133zM11 0l37 137h133l-37 -137h-133z" />
    <glyph glyph-name="semicolon" unicode=";" horiz-adv-x="296" 
d="M116 391l37 137h133l-37 -137h-133zM-44 -145l-9 51q101 14 115 94h-51l37 137h133l-31 -116q-23 -84 -69 -122t-125 -44z" />
    <glyph glyph-name="less" unicode="&#x3c;" horiz-adv-x="634" 
d="M494 77l-419 221l29 108l538 221l-34 -121l-399 -159l314 -160z" />
    <glyph glyph-name="equal" unicode="=" horiz-adv-x="634" 
d="M126 421l30 112h468l-30 -112h-468zM59 171l30 112h468l-30 -112h-468z" />
    <glyph glyph-name="greater" unicode="&#x3e;" horiz-adv-x="634" 
d="M37 77l33 121l400 159l-315 160l30 110l419 -221l-29 -108z" />
    <glyph glyph-name="question" unicode="?" horiz-adv-x="541" 
d="M182 221l23 162l6 5q102 8 158.5 40.5t56.5 86.5q0 39 -27 60.5t-76 21.5q-86 0 -159 -68l-66 81q97 99 241 99q98 0 157 -52t59 -128q0 -90 -68 -146.5t-191 -74.5l-33 -87h-81zM99 0l37 137h133l-37 -137h-133z" />
    <glyph glyph-name="at" unicode="@" horiz-adv-x="980" 
d="M476 -157q-186 0 -302 108.5t-116 280.5q0 95 38.5 184t103.5 154t156 104.5t191 39.5q182 0 291 -100.5t109 -246.5q0 -143 -68 -221.5t-159 -78.5q-51 0 -86 22.5t-48 61.5q-76 -85 -168 -85q-68 0 -114 45t-46 123q0 114 76.5 193.5t172.5 79.5t138 -82l22 73l92 -25
l-78 -247q-16 -53 1.5 -84t60.5 -31q60 0 112 69.5t52 186.5q0 131 -98.5 220.5t-261.5 89.5q-123 0 -227 -61.5t-163 -164t-59 -219.5q0 -156 105 -254t273 -98q104 0 205 45l16 -33q-105 -49 -221 -49zM456 151q60 0 109.5 52.5t49.5 120.5q0 44 -27.5 70.5t-72.5 26.5
q-59 0 -105 -51.5t-46 -122.5q0 -45 25 -70.5t67 -25.5z" />
    <glyph glyph-name="A" unicode="A" horiz-adv-x="763" 
d="M-50 0l497 705h118l119 -705h-126l-27 169h-331l-117 -169h-133zM275 278h241l-45 283z" />
    <glyph glyph-name="B" unicode="B" horiz-adv-x="717" 
d="M19 0l188 700h268q111 0 170 -46.5t59 -121.5q0 -70 -44 -116t-116 -62q108 -42 108 -143q0 -95 -79 -153t-219 -58h-335zM248 405h174q74 0 116 28t42 79q0 79 -116 79h-166zM169 109h202q74 0 116.5 29t42.5 80q0 39 -33 61t-90 22h-187z" />
    <glyph glyph-name="C" unicode="C" horiz-adv-x="730" 
d="M391 -12q-138 0 -227 81t-89 217q0 111 56.5 209t154.5 157.5t212 59.5q187 0 273 -150l-102 -69q-34 52 -77 79t-108 27q-112 0 -196.5 -92.5t-84.5 -215.5q0 -86 53 -138t137 -52q55 0 97.5 20t88.5 60l81 -82q-114 -111 -269 -111z" />
    <glyph glyph-name="D" unicode="D" horiz-adv-x="775" 
d="M19 0l188 700h190q182 0 273 -91q77 -76 77 -204q0 -161 -113 -274q-131 -131 -364 -131h-251zM172 112h113q161 0 256 95q78 78 78 193q0 80 -49 129q-59 59 -182 59h-87z" />
    <glyph glyph-name="E" unicode="E" horiz-adv-x="660" 
d="M19 0l188 700h514l-30 -110h-391l-49 -183h347l-30 -109h-347l-50 -188h397l-30 -110h-519z" />
    <glyph glyph-name="F" unicode="F" horiz-adv-x="661" 
d="M19 0l188 700h521l-30 -112h-398l-51 -191h353l-30 -112h-353l-76 -285h-124z" />
    <glyph glyph-name="G" unicode="G" horiz-adv-x="782" 
d="M395 -12q-132 0 -226.5 79.5t-94.5 221.5q0 108 55.5 205t156.5 157.5t222 60.5q187 0 277 -124l-92 -78q-74 89 -194 89q-124 0 -210 -92t-86 -214q0 -90 56 -141.5t144 -51.5q80 0 148 36l43 148h-179l29 107h298l-95 -335q-115 -68 -252 -68z" />
    <glyph glyph-name="H" unicode="H" horiz-adv-x="756" 
d="M19 0l188 700h124l-78 -291h329l78 291h123l-188 -700h-123l79 295h-329l-79 -295h-124z" />
    <glyph glyph-name="I" unicode="I" horiz-adv-x="317" 
d="M26 0l188 700h124l-188 -700h-124z" />
    <glyph glyph-name="J" unicode="J" horiz-adv-x="564" 
d="M190 -10q-72 0 -129 34.5t-90 95.5l90 71q52 -87 134 -87q61 0 104 43q38 37 66 146l109 407h127l-117 -435q-21 -78 -42.5 -123t-56.5 -80q-73 -72 -195 -72z" />
    <glyph glyph-name="K" unicode="K" horiz-adv-x="723" 
d="M19 0l188 700h124l-95 -354l410 354h169l-356 -299l179 -401h-136l-141 328l-169 -142l-49 -186h-124z" />
    <glyph glyph-name="L" unicode="L" horiz-adv-x="618" 
d="M19 0l188 700h124l-158 -588h368l-31 -112h-491z" />
    <glyph glyph-name="M" unicode="M" horiz-adv-x="868" 
d="M19 0l188 700h125l122 -331l300 331h141l-188 -700h-125l135 502l-308 -330h-4l-129 328l-134 -500h-123z" />
    <glyph glyph-name="N" unicode="N" horiz-adv-x="786" 
d="M19 0l188 700h114l237 -495l134 495h121l-188 -700h-103l-245 509l-136 -509h-122z" />
    <glyph glyph-name="O" unicode="O" horiz-adv-x="836" 
d="M390 -12q-139 0 -226.5 87.5t-87.5 219.5q0 106 52.5 201.5t149 155.5t213.5 60q139 0 227 -87.5t88 -219.5q0 -106 -52.5 -201.5t-149.5 -155.5t-214 -60zM403 101q78 0 142.5 44.5t98.5 112.5t34 140q0 88 -53.5 144.5t-145.5 56.5q-78 0 -142.5 -44.5t-98.5 -112.5
t-34 -140q0 -89 53.5 -145t145.5 -56z" />
    <glyph glyph-name="P" unicode="P" horiz-adv-x="674" 
d="M19 0l188 700h221q144 0 212 -69q52 -52 52 -138q0 -124 -95 -195t-247 -71h-146l-61 -227h-124zM233 336h123q97 0 152.5 39t55.5 108q0 42 -27 69q-36 36 -113 36h-124z" />
    <glyph glyph-name="Q" unicode="Q" horiz-adv-x="836" 
d="M640 -38l-54 77q-91 -51 -196 -51q-139 0 -226.5 87.5t-87.5 219.5q0 106 52.5 201.5t149 155.5t213.5 60q139 0 227 -87.5t88 -219.5q0 -83 -33.5 -161t-93.5 -137l61 -77zM403 101q63 0 119 32l-99 124l101 69l84 -120q70 86 70 192q0 88 -53.5 144.5t-145.5 56.5
q-78 0 -142.5 -44.5t-98.5 -112.5t-34 -140q0 -89 53.5 -145t145.5 -56z" />
    <glyph glyph-name="R" unicode="R" horiz-adv-x="723" 
d="M19 0l188 700h254q145 0 212 -68q51 -51 51 -132q0 -98 -64 -160q-61 -62 -175 -84l130 -256h-141l-120 244h-146l-65 -244h-124zM237 353h159q114 0 165 53q35 35 35 84q0 37 -25 64q-36 34 -117 34h-153z" />
    <glyph glyph-name="S" unicode="S" horiz-adv-x="637" 
d="M296 -10q-198 0 -297 131l93 77q87 -99 211 -99q59 0 97 27t38 70q0 32 -27.5 54.5t-101.5 51.5q-90 36 -135 78t-45 110q0 97 77 158.5t192 61.5q162 0 257 -105l-86 -84q-82 80 -180 80q-59 0 -94.5 -27.5t-35.5 -64.5q0 -33 28.5 -54.5t107.5 -52.5
q87 -34 130.5 -76.5t43.5 -111.5q0 -100 -79.5 -162t-193.5 -62z" />
    <glyph glyph-name="T" unicode="T" horiz-adv-x="618" 
d="M174 0l158 586h-223l31 114h568l-31 -114h-222l-158 -586h-123z" />
    <glyph glyph-name="U" unicode="U" horiz-adv-x="762" 
d="M345 -11q-122 0 -190.5 62t-68.5 169q0 56 16 111l98 369h123l-103 -386q-10 -38 -10 -77q0 -61 38 -98t109 -37q78 0 131 53t77 147l107 398h123l-112 -417q-36 -134 -109 -207q-87 -87 -229 -87z" />
    <glyph glyph-name="V" unicode="V" horiz-adv-x="721" 
d="M229 -5l-99 705h132l63 -535l351 535h139l-477 -705h-109z" />
    <glyph glyph-name="W" unicode="W" horiz-adv-x="1098" 
d="M191 -5l-55 705h128l29 -519l309 521h104l34 -521l306 519h140l-433 -705h-113l-36 497l-302 -497h-111z" />
    <glyph glyph-name="X" unicode="X" horiz-adv-x="698" 
d="M-43 0l347 363l-161 337h138l112 -250l230 250h158l-336 -352l166 -348h-138l-118 261l-240 -261h-158z" />
    <glyph glyph-name="Y" unicode="Y" horiz-adv-x="655" 
d="M189 0l74 278l-156 422h136l106 -316l277 316h152l-395 -435l-71 -265h-123z" />
    <glyph glyph-name="Z" unicode="Z" horiz-adv-x="681" 
d="M-19 0l24 91l535 500h-387l30 109h557l-25 -91l-535 -500h404l-29 -109h-574z" />
    <glyph glyph-name="bracketleft" unicode="[" horiz-adv-x="454" 
d="M-2 -130l223 830h308l-26 -95h-192l-172 -640h192l-25 -95h-308z" />
    <glyph glyph-name="backslash" unicode="\" horiz-adv-x="521" 
d="M339 -128l-212 926h101l212 -926h-101z" />
    <glyph glyph-name="bracketright" unicode="]" horiz-adv-x="454" 
d="M-64 -130l26 95h192l172 640h-192l25 95h308l-223 -830h-308z" />
    <glyph glyph-name="asciicircum" unicode="^" 
d="M98 493l207 208h85l96 -208h-84l-67 132l-137 -132h-100z" />
    <glyph glyph-name="underscore" unicode="_" horiz-adv-x="600" 
d="M-115 -160l26 94h604l-25 -94h-605z" />
    <glyph glyph-name="grave" unicode="`" 
d="M353 595l-91 115l113 49l61 -164h-83z" />
    <glyph glyph-name="a" unicode="a" horiz-adv-x="583" 
d="M174 -11q-69 0 -115 40t-46 105q0 89 65 139.5t170 50.5q82 0 158 -26l3 11q6 24 6 42q0 78 -115 78q-73 0 -145 -29l-20 100q88 36 189 36q103 0 157.5 -43t54.5 -121q0 -34 -11 -75l-79 -297h-119l18 69q-75 -80 -171 -80zM221 78q55 0 101 37t59 87l6 23
q-66 20 -120 20q-60 0 -95 -26.5t-35 -68.5q0 -34 22.5 -53t61.5 -19z" />
    <glyph glyph-name="b" unicode="b" horiz-adv-x="668" 
d="M329 -11q-121 0 -178 105l-25 -94h-121l195 730h121l-73 -272q81 81 169 81q90 0 148 -61.5t58 -164.5q0 -137 -88.5 -230.5t-205.5 -93.5zM315 92q74 0 128 62.5t54 149.5q0 60 -34 95.5t-91 35.5q-74 0 -132 -63t-58 -146q0 -58 37 -96t96 -38z" />
    <glyph glyph-name="c" unicode="c" horiz-adv-x="561" 
d="M286 -12q-104 0 -173 64.5t-69 170.5q0 129 93 222.5t219 93.5q146 0 214 -120l-94 -64q-24 38 -53.5 58.5t-76.5 20.5q-72 0 -126.5 -63t-54.5 -147q0 -60 36 -96t89 -36q68 0 135 59l64 -79q-92 -84 -203 -84z" />
    <glyph glyph-name="d" unicode="d" horiz-adv-x="668" 
d="M250 -11q-90 0 -148 61.5t-58 164.5q0 137 88.5 230.5t205.5 93.5q121 0 178 -105l79 296h121l-195 -730h-121l19 70q-81 -81 -169 -81zM296 92q73 0 131.5 63.5t58.5 146.5q0 58 -37.5 95.5t-96.5 37.5q-74 0 -128 -62t-54 -150q0 -60 34.5 -95.5t91.5 -35.5z" />
    <glyph glyph-name="e" unicode="e" horiz-adv-x="600" 
d="M159 220q1 -61 36.5 -97t100.5 -36q68 0 135 51l58 -77q-89 -73 -205 -73q-110 0 -175 62.5t-65 168.5q0 79 38.5 152t111.5 120.5t161 47.5q98 0 154.5 -58t56.5 -147q0 -52 -23 -114h-384zM172 303h274q5 13 5 36q0 44 -26.5 72.5t-78.5 28.5q-60 0 -106.5 -38
t-67.5 -99z" />
    <glyph glyph-name="f" unicode="f" horiz-adv-x="396" 
d="M33 0l114 424h-67l28 104h67l10 43q44 164 201 164q61 0 104 -18l-27 -101q-38 16 -74 16q-67 0 -87 -74l-8 -30h146l-28 -104h-144l-114 -424h-121z" />
    <glyph glyph-name="g" unicode="g" horiz-adv-x="666" 
d="M246 -162q-163 0 -271 81l67 84q89 -67 197 -67q82 0 129 47q35 35 55 107l9 32q-86 -80 -181 -80q-83 0 -143 51.5t-60 139.5q0 128 89 217t203 89q68 0 108 -29t66 -77l25 95h121l-116 -436q-19 -71 -39 -110.5t-51 -69.5q-74 -74 -208 -74zM296 141q73 0 128.5 53.5
t55.5 123.5q0 51 -35 84.5t-93 33.5q-72 0 -125 -53.5t-53 -128.5q0 -54 34.5 -83.5t87.5 -29.5z" />
    <glyph glyph-name="h" unicode="h" horiz-adv-x="618" 
d="M5 0l195 730h121l-72 -270q79 79 160 79q74 0 117.5 -42.5t43.5 -115.5q0 -31 -16 -93l-76 -288h-121l78 293q8 27 8 53q0 40 -24 61.5t-68 21.5q-50 0 -89.5 -36.5t-55.5 -95.5l-80 -297h-121z" />
    <glyph glyph-name="i" unicode="i" horiz-adv-x="286" 
d="M171 609l31 115h131l-32 -115h-130zM12 0l142 528h121l-142 -528h-121z" />
    <glyph glyph-name="j" unicode="j" horiz-adv-x="285" 
d="M171 609l31 115h130l-31 -115h-130zM-48 -163q-41 0 -77 9l26 96q26 -6 40 -6q55 0 73 72l140 520h121l-144 -535q-42 -156 -179 -156z" />
    <glyph glyph-name="k" unicode="k" horiz-adv-x="582" 
d="M5 0l196 730h121l-114 -427l270 225h160l-266 -215l127 -313h-136l-94 235l-102 -82l-41 -153h-121z" />
    <glyph glyph-name="l" unicode="l" horiz-adv-x="286" 
d="M12 0l196 730h121l-196 -730h-121z" />
    <glyph glyph-name="m" unicode="m" horiz-adv-x="950" 
d="M5 0l141 528h121l-18 -68q77 79 155 79q56 0 93 -29t51 -77q77 106 198 106q71 0 114 -43t43 -115q0 -27 -17 -93l-77 -288h-121l79 293q7 30 7 53q0 40 -22.5 61.5t-63.5 21.5q-49 0 -87 -36.5t-53 -95.5l-80 -297h-121l79 293q7 30 7 53q0 40 -22.5 61.5t-63.5 21.5
q-49 0 -87 -36t-54 -96l-80 -297h-121z" />
    <glyph glyph-name="n" unicode="n" horiz-adv-x="617" 
d="M5 0l141 528h121l-18 -68q79 79 160 79q74 0 117.5 -42.5t43.5 -115.5q0 -31 -16 -93l-76 -288h-121l78 293q8 27 8 53q0 40 -24 61.5t-68 21.5q-50 0 -89.5 -36.5t-55.5 -95.5l-80 -297h-121z" />
    <glyph glyph-name="o" unicode="o" horiz-adv-x="646" 
d="M293 -12q-112 0 -180 67.5t-68 173.5q0 122 91 216t217 94q112 0 180 -68t68 -174q0 -122 -91.5 -215.5t-216.5 -93.5zM300 93q74 0 127.5 63t53.5 138q0 66 -37 103t-98 37q-75 0 -128 -63.5t-53 -137.5q0 -66 37 -103t98 -37z" />
    <glyph glyph-name="p" unicode="p" horiz-adv-x="668" 
d="M-38 -160l184 688h121l-19 -70q81 81 169 81q90 0 148 -61.5t58 -164.5q0 -137 -88.5 -230.5t-205.5 -93.5q-121 0 -178 105l-68 -254h-121zM315 92q74 0 128 62.5t54 149.5q0 60 -34 95.5t-91 35.5q-74 0 -132 -63t-58 -146q0 -58 37 -96t96 -38z" />
    <glyph glyph-name="q" unicode="q" horiz-adv-x="668" 
d="M357 -160l62 231q-79 -82 -169 -82t-148 61.5t-58 164.5q0 137 88.5 230.5t205.5 93.5q122 0 178 -104l25 93h121l-184 -688h-121zM296 92q74 0 132 63.5t58 147.5q0 58 -37.5 95t-96.5 37q-74 0 -128 -62t-54 -150q0 -60 34.5 -95.5t91.5 -35.5z" />
    <glyph glyph-name="r" unicode="r" horiz-adv-x="412" 
d="M5 0l141 528h121l-31 -119q95 137 221 129l-34 -128h-7q-83 0 -146 -54t-91 -160l-53 -196h-121z" />
    <glyph glyph-name="s" unicode="s" horiz-adv-x="498" 
d="M217 -12q-63 0 -126 24.5t-107 70.5l72 74q74 -74 170 -74q37 0 61 17t24 46q0 19 -18 34t-59 32q-78 32 -115 63.5t-37 87.5q0 76 56.5 125.5t150.5 49.5q58 0 112.5 -21.5t90.5 -52.5l-67 -78q-73 58 -145 58q-38 0 -59.5 -17t-21.5 -43q0 -20 19 -35t65 -34
q71 -30 108 -62.5t37 -85.5q0 -80 -59.5 -129.5t-151.5 -49.5z" />
    <glyph glyph-name="t" unicode="t" horiz-adv-x="409" 
d="M196 -9q-63 0 -97.5 28t-34.5 76q0 31 9 61l71 268h-67l28 104h67l39 145h121l-39 -145h141l-28 -104h-141l-68 -255q-4 -20 -4 -30q0 -41 53 -41q37 0 77 17l-28 -105q-42 -19 -99 -19z" />
    <glyph glyph-name="u" unicode="u" horiz-adv-x="618" 
d="M209 -11q-74 0 -117.5 42.5t-43.5 115.5q0 31 16 93l77 288h121l-79 -293q-7 -28 -7 -53q0 -40 23.5 -61.5t67.5 -21.5q50 0 89.5 36.5t55.5 95.5l80 297h121l-141 -528h-121l18 68q-79 -79 -160 -79z" />
    <glyph glyph-name="v" unicode="v" horiz-adv-x="581" 
d="M159 -4l-73 532h125l38 -386l243 386h132l-356 -532h-109z" />
    <glyph glyph-name="w" unicode="w" horiz-adv-x="853" 
d="M121 -4l-29 532h123l10 -361l214 363h103l20 -363l206 361h122l-316 -532h-109l-21 361l-216 -361h-107z" />
    <glyph glyph-name="x" unicode="x" horiz-adv-x="572" 
d="M-44 0l269 275l-122 253h130l75 -169l156 169h146l-256 -265l125 -263h-130l-79 180l-167 -180h-147z" />
    <glyph glyph-name="y" unicode="y" horiz-adv-x="585" 
d="M65 -163q-67 0 -119 36l64 89q32 -23 68 -23q46 0 90 59l-77 530h124l44 -391l233 391h132l-341 -543q-53 -81 -103 -114.5t-115 -33.5z" />
    <glyph glyph-name="z" unicode="z" horiz-adv-x="554" 
d="M-24 0l23 83l388 346h-285l26 99h445l-22 -83l-389 -346h299l-27 -99h-458z" />
    <glyph glyph-name="braceleft" unicode="{" horiz-adv-x="487" 
d="M309 -141q-94 19 -135.5 58t-41.5 99q0 34 21 96q13 41 13 67q0 32 -17 47t-68 15h-31l25 92h30q74 0 104.5 33t45.5 130q16 111 80 163t199 56l6 -82q-95 -8 -131.5 -44.5t-47.5 -119.5q-13 -101 -49.5 -141.5t-110.5 -49.5q39 -7 60 -30t21 -57q0 -27 -16 -71
q-18 -58 -18 -84q0 -37 21.5 -60t78.5 -43z" />
    <glyph glyph-name="bar" unicode="|" horiz-adv-x="331" 
d="M135 -128v926h97v-926h-97z" />
    <glyph glyph-name="braceright" unicode="}" horiz-adv-x="487" 
d="M-35 -141l-6 82q95 8 131 44.5t48 119.5q13 101 49.5 141.5t110.5 49.5q-80 15 -80 87q0 30 15 71q18 56 18 84q0 37 -21.5 60t-78.5 43l39 74q94 -19 135.5 -58t41.5 -99q0 -33 -20 -96q-14 -39 -14 -67q0 -32 17 -47t69 -15h30l-25 -92h-30q-74 0 -105 -33t-45 -130
q-17 -111 -80.5 -163t-198.5 -56z" />
    <glyph glyph-name="asciitilde" unicode="~" horiz-adv-x="495" 
d="M132 228l-67 32q56 122 138 122q37 0 75 -31q34 -27 52 -27q20 0 34.5 14.5t31.5 44.5l68 -32q-56 -122 -138 -122q-37 0 -76 31q-36 27 -51 27q-33 0 -67 -59z" />
    <glyph glyph-name="uni00A0" unicode="&#xa0;" horiz-adv-x="300" 
 />
    <glyph glyph-name="exclamdown" unicode="&#xa1;" horiz-adv-x="303" 
d="M165 563l37 137h133l-37 -137h-133zM9 0l10 35l156 444h67l-81 -444l-10 -35h-142z" />
    <glyph glyph-name="cent" unicode="&#xa2;" horiz-adv-x="578" 
d="M203 104q-63 29 -98.5 85t-35.5 130q0 131 90.5 221t222.5 90q18 0 26 -1l30 77h88l-37 -94q79 -30 119 -103l-92 -63q-29 47 -71 66l-128 -328h8q76 0 145 56l65 -81q-87 -80 -207 -80q-25 0 -46 3l-35 -88h-88zM371 525q-77 -4 -129.5 -64.5t-52.5 -139.5
q0 -76 58 -114z" />
    <glyph glyph-name="sterling" unicode="&#xa3;" horiz-adv-x="638" 
d="M-10 0l21 78l86 24l47 176h-79l28 104h79l28 105q26 98 80 152q70 70 180 70q141 0 205 -117l-99 -66q-22 35 -48.5 52.5t-66.5 17.5q-49 0 -84 -35q-32 -32 -49 -95l-24 -84h251l-27 -104h-251l-46 -171h327l-29 -107h-529z" />
    <glyph glyph-name="yen" unicode="&#xa5;" horiz-adv-x="708" 
d="M222 0l27 102h-192l24 89h192l19 73h-192l24 89h157l-138 347h133l108 -294l266 294h149l-328 -347h157l-24 -89h-193l-19 -73h193l-24 -89h-193l-27 -102h-119z" />
    <glyph glyph-name="section" unicode="&#xa7;" horiz-adv-x="632" 
d="M285 -9q-73 0 -134 24t-97 65l76 70q68 -66 162 -66q38 0 62 14t24 36q0 20 -24.5 35t-88.5 34q-96 29 -142 59.5t-46 84.5q0 52 40.5 86t113.5 44q-48 36 -48 87q0 65 60 106t150 41q73 0 134 -24t97 -65l-76 -70q-68 66 -162 66q-38 0 -62 -14t-24 -36
q0 -21 24.5 -35.5t88.5 -33.5q95 -28 141.5 -59t46.5 -85q0 -51 -40.5 -85.5t-113.5 -44.5q48 -36 48 -87q0 -65 -60 -106t-150 -41zM397 275q37 0 63 18t26 43q0 22 -23 37.5t-77 32.5q-64 21 -105 21q-37 0 -63 -18t-26 -43q0 -22 23 -37.5t77 -32.5q64 -21 105 -21z" />
    <glyph glyph-name="dieresis" unicode="&#xa8;" 
d="M373 595l32 119h123l-33 -119h-122zM174 595l32 119h123l-32 -119h-123z" />
    <glyph glyph-name="copyright" unicode="&#xa9;" horiz-adv-x="830" 
d="M436 -12q-151 0 -256 106t-105 255t106 256t257 107t256 -106t105 -255t-106 -256t-257 -107zM436 24q138 0 231.5 95.5t93.5 231.5t-93 230.5t-230 94.5q-138 0 -231 -95.5t-93 -231.5t92.5 -230.5t229.5 -94.5zM441 159q-82 0 -137 56.5t-55 138.5t55.5 139.5
t139.5 57.5q87 0 148 -59l-47 -54q-50 45 -102 45q-51 0 -84.5 -37t-33.5 -91q0 -53 34 -90.5t85 -37.5q53 0 103 47l48 -47q-65 -68 -154 -68z" />
    <glyph glyph-name="ordfeminine" unicode="&#xaa;" horiz-adv-x="390" 
d="M189 403q-38 0 -62 22t-24 56q0 49 36.5 78t91.5 29q41 0 88 -15l2 7q4 12 4 20q0 43 -64 43q-41 0 -78 -15l-12 56q50 20 105 20q57 0 87 -23.5t30 -66.5q0 -15 -6 -43l-44 -162h-69l11 39q-43 -45 -96 -45zM53 282l16 58h259l-16 -58h-259zM217 452q29 0 55 20.5
t34 49.5l2 10q-37 11 -65 11q-31 0 -50 -15t-19 -39q0 -16 12 -26.5t31 -10.5z" />
    <glyph glyph-name="guillemotleft" unicode="&#xab;" horiz-adv-x="605" 
d="M403 34l-107 220l2 8l231 226l71 -65l-181 -177l81 -167zM152 34l-106 220l2 8l230 226l72 -65l-181 -177l81 -167z" />
    <glyph glyph-name="registered" unicode="&#xae;" horiz-adv-x="382" 
d="M266 360q-73 0 -123.5 51t-50.5 123v1q0 72 51 123.5t123 51.5q73 0 123.5 -51t50.5 -123v-1q0 -72 -51 -123.5t-123 -51.5zM266 379q65 0 109.5 46t44.5 110v1q0 64 -44.5 109.5t-109.5 45.5t-109.5 -46t-44.5 -110v-1q0 -64 44.5 -109.5t109.5 -45.5zM194 448v181h85
q33 0 53 -15t20 -45q0 -43 -40 -56l46 -65h-53l-39 57h-28v-57h-44zM238 541h38q31 0 31 25t-31 25h-38v-50z" />
    <glyph glyph-name="macron" unicode="&#xaf;" 
d="M170 606l24 88h343l-24 -88h-343z" />
    <glyph glyph-name="degree" unicode="&#xb0;" horiz-adv-x="421" 
d="M238 377q-67 0 -108.5 41t-41.5 105q0 74 54 129.5t129 55.5q68 0 109.5 -41t41.5 -105q0 -73 -54.5 -129t-129.5 -56zM242 445q44 0 74 35t30 79q0 37 -21.5 59.5t-56.5 22.5q-43 0 -73.5 -35.5t-30.5 -78.5q0 -37 21.5 -59.5t56.5 -22.5z" />
    <glyph glyph-name="plusminus" unicode="&#xb1;" horiz-adv-x="634" 
d="M589 373h-188l-48 -181h-110l49 181h-188l28 107l188 -1l48 181h110l-49 -181l188 1zM489 0h-484l27 103h484z" />
    <glyph glyph-name="acute" unicode="&#xb4;" 
d="M221 595l150 164l108 -49l-153 -115h-105z" />
    <glyph glyph-name="paragraph" unicode="&#xb6;" horiz-adv-x="565" 
d="M281 0l60 227q-117 4 -183 54.5t-66 149.5q0 121 89 195t255 74h156l-188 -700h-123z" />
    <glyph glyph-name="periodcentered" unicode="&#xb7;" horiz-adv-x="293" 
d="M69 238l37 137h134l-37 -137h-134z" />
    <glyph glyph-name="cedilla" unicode="&#xb8;" 
d="M145 -166l-93 45l124 131h91z" />
    <glyph glyph-name="ordmasculine" unicode="&#xba;" horiz-adv-x="398" 
d="M246 401q-63 0 -101 37.5t-38 96.5q0 68 49.5 119t119.5 51q62 0 100.5 -37.5t38.5 -96.5q0 -68 -49.5 -119t-119.5 -51zM54 282l15 58h275l-15 -58h-275zM249 462q41 0 68.5 32.5t27.5 73.5q0 34 -20 55t-52 21q-41 0 -68.5 -32.5t-27.5 -73.5q0 -34 20 -55t52 -21z" />
    <glyph glyph-name="guillemotright" unicode="&#xbb;" horiz-adv-x="605" 
d="M324 34l-71 64l181 178l-81 167l97 44l107 -219l-2 -8zM74 34l-71 64l180 178l-80 167l97 44l107 -219l-2 -8z" />
    <glyph glyph-name="questiondown" unicode="&#xbf;" horiz-adv-x="541" 
d="M318 563l37 137h133l-37 -137h-133zM249 -9q-99 0 -158 52t-59 128q0 90 68 146.5t191 74.5l33 87h81l-23 -162l-6 -5q-102 -8 -158.5 -40.5t-56.5 -86.5q0 -39 27 -60.5t76 -21.5q86 0 159 68l66 -81q-97 -99 -240 -99z" />
    <glyph glyph-name="Agrave" unicode="&#xc0;" horiz-adv-x="763" 
d="M-50 0l497 705h118l119 -705h-126l-27 169h-331l-117 -169h-133zM275 278h241l-45 283zM482 913l73 -145h-84l-101 97z" />
    <glyph glyph-name="Aacute" unicode="&#xc1;" horiz-adv-x="763" 
d="M-50 0l497 705h118l119 -705h-126l-27 169h-331l-117 -169h-133zM275 278h241l-45 283zM468 768l152 145l107 -48l-153 -97h-106z" />
    <glyph glyph-name="Acircumflex" unicode="&#xc2;" horiz-adv-x="763" 
d="M-50 0l497 705h118l119 -705h-126l-27 169h-331l-117 -169h-133zM275 278h241l-45 283zM336 764l157 135h114l85 -135h-94l-61 58l-93 -58h-108z" />
    <glyph glyph-name="Atilde" unicode="&#xc3;" horiz-adv-x="763" 
d="M-50 0l497 705h118l119 -705h-126l-27 169h-331l-117 -169h-133zM275 278h241l-45 283zM404 758l-67 23q28 63 57 92t72 29q30 0 78 -19.5t63 -19.5q20 0 34 11t30 37l67 -22q-28 -63 -57 -92t-72 -29q-30 0 -78 19.5t-63 19.5q-20 0 -34 -11.5t-30 -37.5z" />
    <glyph glyph-name="Adieresis" unicode="&#xc4;" horiz-adv-x="763" 
d="M-50 0l497 705h118l119 -705h-126l-27 169h-331l-117 -169h-133zM275 278h241l-45 283zM564 768l31 112h124l-31 -112h-124zM359 768l31 112h124l-31 -112h-124z" />
    <glyph glyph-name="Aring" unicode="&#xc5;" horiz-adv-x="763" 
d="M-50 0l472 670q-25 27 -25 62q0 50 37 84.5t96 34.5q46 0 76.5 -27t30.5 -66q0 -69 -63 -103l110 -655h-126l-27 169h-331l-116 -169h-134zM275 278h241l-45 283zM509 686q31 0 52.5 20.5t21.5 46.5q0 23 -16 37t-41 14q-32 0 -53 -20t-21 -47q0 -23 15.5 -37t41.5 -14z
" />
    <glyph glyph-name="AE" unicode="&#xc6;" horiz-adv-x="1061" 
d="M-52 0l579 700h590l-30 -110h-374l-49 -183h330l-30 -109h-330l-50 -188h380l-30 -110h-502l46 169h-256l-139 -169h-135zM311 278h196l84 315h-21z" />
    <glyph glyph-name="Ccedilla" unicode="&#xc7;" horiz-adv-x="730" 
d="M277 -166l-93 45l113 120q-101 25 -161.5 100.5t-60.5 186.5t56.5 209t154.5 157.5t212 59.5q187 0 273 -150l-102 -69q-34 52 -77 79t-108 27q-112 0 -196.5 -92.5t-84.5 -215.5q0 -86 53 -138t137 -52q55 0 97.5 20t88.5 60l81 -82q-114 -111 -269 -111h-8z" />
    <glyph glyph-name="Egrave" unicode="&#xc8;" horiz-adv-x="660" 
d="M435 903l73 -145h-84l-101 97zM19 0l188 700h514l-30 -110h-391l-49 -183h347l-30 -109h-347l-50 -188h397l-30 -110h-519z" />
    <glyph glyph-name="Eacute" unicode="&#xc9;" horiz-adv-x="660" 
d="M421 758l152 145l107 -48l-153 -97h-106zM19 0l188 700h514l-30 -110h-391l-49 -183h347l-30 -109h-347l-50 -188h397l-30 -110h-519z" />
    <glyph glyph-name="Ecircumflex" unicode="&#xca;" horiz-adv-x="660" 
d="M19 0l188 700h514l-30 -110h-391l-49 -183h347l-30 -109h-347l-50 -188h397l-30 -110h-519zM291 758l157 135h114l85 -135h-94l-61 58l-93 -58h-108z" />
    <glyph glyph-name="Edieresis" unicode="&#xcb;" horiz-adv-x="660" 
d="M517 758l31 112h124l-31 -112h-124zM312 758l31 112h124l-31 -112h-124zM19 0l188 700h514l-30 -110h-391l-49 -183h347l-30 -109h-347l-50 -188h397l-30 -110h-519z" />
    <glyph glyph-name="Igrave" unicode="&#xcc;" horiz-adv-x="317" 
d="M26 0l188 700h124l-188 -700h-124zM250 903l73 -145h-84l-101 97z" />
    <glyph glyph-name="Iacute" unicode="&#xcd;" horiz-adv-x="317" 
d="M26 0l188 700h124l-188 -700h-124zM236 758l152 145l107 -48l-153 -97h-106z" />
    <glyph glyph-name="Icircumflex" unicode="&#xce;" horiz-adv-x="317" 
d="M26 0l188 700h124l-188 -700h-124zM106 758l157 135h114l85 -135h-94l-61 58l-93 -58h-108z" />
    <glyph glyph-name="Idieresis" unicode="&#xcf;" horiz-adv-x="317" 
d="M26 0l188 700h124l-188 -700h-124zM332 758l31 112h124l-31 -112h-124zM127 758l31 112h124l-31 -112h-124z" />
    <glyph glyph-name="Eth" unicode="&#xd0;" horiz-adv-x="798" 
d="M42 0l80 297h-81l30 110h80l79 293h190q182 0 273 -91q77 -76 77 -204q0 -161 -113 -274q-131 -131 -364 -131h-251zM195 112h113q161 0 256 95q78 78 78 193q0 80 -49 129q-59 59 -182 59h-87l-49 -181h169l-30 -110h-169z" />
    <glyph glyph-name="Ntilde" unicode="&#xd1;" horiz-adv-x="786" 
d="M406 747l-67 23q28 63 57 92t72 29q30 0 78 -19.5t63 -19.5q20 0 34 11t30 37l67 -22q-28 -63 -57 -92t-72 -29q-30 0 -78 19.5t-63 19.5q-20 0 -34 -11.5t-30 -37.5zM19 0l188 700h114l237 -495l134 495h121l-188 -700h-103l-245 509l-136 -509h-122z" />
    <glyph glyph-name="Ograve" unicode="&#xd2;" horiz-adv-x="836" 
d="M502 913l73 -145h-84l-101 97zM390 -12q-139 0 -226.5 87.5t-87.5 219.5q0 106 52.5 201.5t149 155.5t213.5 60q139 0 227 -87.5t88 -219.5q0 -106 -52.5 -201.5t-149.5 -155.5t-214 -60zM403 101q78 0 142.5 44.5t98.5 112.5t34 140q0 88 -53.5 144.5t-145.5 56.5
q-78 0 -142.5 -44.5t-98.5 -112.5t-34 -140q0 -89 53.5 -145t145.5 -56z" />
    <glyph glyph-name="Oacute" unicode="&#xd3;" horiz-adv-x="836" 
d="M482 768l152 145l107 -48l-153 -97h-106zM390 -12q-139 0 -226.5 87.5t-87.5 219.5q0 106 52.5 201.5t149 155.5t213.5 60q139 0 227 -87.5t88 -219.5q0 -106 -52.5 -201.5t-149.5 -155.5t-214 -60zM403 101q78 0 142.5 44.5t98.5 112.5t34 140q0 88 -53.5 144.5
t-145.5 56.5q-78 0 -142.5 -44.5t-98.5 -112.5t-34 -140q0 -89 53.5 -145t145.5 -56z" />
    <glyph glyph-name="Ocircumflex" unicode="&#xd4;" horiz-adv-x="836" 
d="M390 -12q-139 0 -226.5 87.5t-87.5 219.5q0 106 52.5 201.5t149 155.5t213.5 60q139 0 227 -87.5t88 -219.5q0 -106 -52.5 -201.5t-149.5 -155.5t-214 -60zM403 101q78 0 142.5 44.5t98.5 112.5t34 140q0 88 -53.5 144.5t-145.5 56.5q-78 0 -142.5 -44.5t-98.5 -112.5
t-34 -140q0 -89 53.5 -145t145.5 -56zM357 768l157 135h114l85 -135h-94l-61 58l-93 -58h-108z" />
    <glyph glyph-name="Otilde" unicode="&#xd5;" horiz-adv-x="836" 
d="M425 758l-67 23q28 63 57 92t72 29q30 0 78 -19.5t63 -19.5q20 0 34 11t30 37l67 -22q-28 -63 -57 -92t-72 -29q-30 0 -78 19.5t-63 19.5q-20 0 -34 -11.5t-30 -37.5zM390 -12q-139 0 -226.5 87.5t-87.5 219.5q0 106 52.5 201.5t149 155.5t213.5 60q139 0 227 -87.5
t88 -219.5q0 -106 -52.5 -201.5t-149.5 -155.5t-214 -60zM403 101q78 0 142.5 44.5t98.5 112.5t34 140q0 88 -53.5 144.5t-145.5 56.5q-78 0 -142.5 -44.5t-98.5 -112.5t-34 -140q0 -89 53.5 -145t145.5 -56z" />
    <glyph glyph-name="Odieresis" unicode="&#xd6;" horiz-adv-x="836" 
d="M583 768l31 112h124l-31 -112h-124zM378 768l31 112h124l-31 -112h-124zM390 -12q-139 0 -226.5 87.5t-87.5 219.5q0 106 52.5 201.5t149 155.5t213.5 60q139 0 227 -87.5t88 -219.5q0 -106 -52.5 -201.5t-149.5 -155.5t-214 -60zM403 101q78 0 142.5 44.5t98.5 112.5
t34 140q0 88 -53.5 144.5t-145.5 56.5q-78 0 -142.5 -44.5t-98.5 -112.5t-34 -140q0 -89 53.5 -145t145.5 -56z" />
    <glyph glyph-name="multiply" unicode="&#xd7;" horiz-adv-x="634" 
d="M445 114l-116 163l-207 -165l-63 84l209 162l-120 161l93 73l116 -164l207 165l63 -85l-208 -161l120 -160z" />
    <glyph glyph-name="Oslash" unicode="&#xd8;" horiz-adv-x="836" 
d="M390 -12q-126 0 -212 75l-78 -68h-123l146 130q-47 74 -47 170q0 106 52.5 201.5t149 155.5t213.5 60q130 0 216 -78l80 71h123l-149 -134q45 -73 45 -166q0 -106 -52.5 -201.5t-149.5 -155.5t-214 -60zM219 206l396 350q-53 47 -136 47q-118 0 -198.5 -93.5
t-80.5 -208.5q0 -54 19 -95zM402 96q79 0 144.5 45.5t100.5 114.5t35 142q0 52 -18 92l-393 -349q51 -45 131 -45z" />
    <glyph glyph-name="Ugrave" unicode="&#xd9;" horiz-adv-x="762" 
d="M463 902l73 -145h-84l-101 97zM345 -11q-122 0 -190.5 62t-68.5 169q0 56 16 111l98 369h123l-103 -386q-10 -38 -10 -77q0 -61 38 -98t109 -37q78 0 131 53t77 147l107 398h123l-112 -417q-36 -134 -109 -207q-87 -87 -229 -87z" />
    <glyph glyph-name="Uacute" unicode="&#xda;" horiz-adv-x="762" 
d="M449 757l152 145l107 -48l-153 -97h-106zM345 -11q-122 0 -190.5 62t-68.5 169q0 56 16 111l98 369h123l-103 -386q-10 -38 -10 -77q0 -61 38 -98t109 -37q78 0 131 53t77 147l107 398h123l-112 -417q-36 -134 -109 -207q-87 -87 -229 -87z" />
    <glyph glyph-name="Ucircumflex" unicode="&#xdb;" horiz-adv-x="762" 
d="M345 -11q-122 0 -190.5 62t-68.5 169q0 56 16 111l98 369h123l-103 -386q-10 -38 -10 -77q0 -61 38 -98t109 -37q78 0 131 53t77 147l107 398h123l-112 -417q-36 -134 -109 -207q-87 -87 -229 -87zM319 757l157 135h114l85 -135h-94l-61 58l-93 -58h-108z" />
    <glyph glyph-name="Udieresis" unicode="&#xdc;" horiz-adv-x="762" 
d="M545 757l31 112h124l-31 -112h-124zM340 757l31 112h124l-31 -112h-124zM345 -11q-122 0 -190.5 62t-68.5 169q0 56 16 111l98 369h123l-103 -386q-10 -38 -10 -77q0 -61 38 -98t109 -37q78 0 131 53t77 147l107 398h123l-112 -417q-36 -134 -109 -207q-87 -87 -229 -87z
" />
    <glyph glyph-name="Yacute" unicode="&#xdd;" horiz-adv-x="655" 
d="M189 0l74 278l-156 422h136l106 -316l277 316h152l-395 -435l-71 -265h-123zM389 757l152 145l107 -48l-153 -97h-106z" />
    <glyph glyph-name="Thorn" unicode="&#xde;" horiz-adv-x="683" 
d="M204 227h123q97 0 152.5 39t55.5 108q0 42 -27 69q-36 36 -113 36h-124zM321 118h-146l-32 -118h-124l188 700h123l-28 -109h97q144 0 212 -69q52 -52 52 -138q0 -124 -95 -195t-247 -71z" />
    <glyph glyph-name="germandbls" unicode="&#xdf;" horiz-adv-x="628" 
d="M225 -2l26 96q100 -1 147 33.5t47 88.5q0 83 -135 101l22 83q164 39 164 145q0 41 -27 65t-70 24q-51 0 -87.5 -37t-54.5 -105l-131 -492h-121l135 502q30 109 87 166q71 69 177 69q95 0 151.5 -51t56.5 -130q0 -74 -46 -123t-126 -74q121 -42 121 -146q0 -99 -86 -159
t-250 -56z" />
    <glyph glyph-name="agrave" unicode="&#xe0;" horiz-adv-x="583" 
d="M174 -11q-69 0 -115 40t-46 105q0 89 65 139.5t170 50.5q82 0 158 -26l3 11q6 24 6 42q0 78 -115 78q-73 0 -145 -29l-20 100q88 36 189 36q103 0 157.5 -43t54.5 -121q0 -34 -11 -75l-79 -297h-119l18 69q-75 -80 -171 -80zM221 78q55 0 101 37t59 87l6 23
q-66 20 -120 20q-60 0 -95 -26.5t-35 -68.5q0 -34 22.5 -53t61.5 -19zM320 595l-91 115l113 49l61 -164h-83z" />
    <glyph glyph-name="aacute" unicode="&#xe1;" horiz-adv-x="583" 
d="M174 -11q-69 0 -115 40t-46 105q0 89 65 139.5t170 50.5q82 0 158 -26l3 11q6 24 6 42q0 78 -115 78q-73 0 -145 -29l-20 100q88 36 189 36q103 0 157.5 -43t54.5 -121q0 -34 -11 -75l-79 -297h-119l18 69q-75 -80 -171 -80zM221 78q55 0 101 37t59 87l6 23
q-66 20 -120 20q-60 0 -95 -26.5t-35 -68.5q0 -34 22.5 -53t61.5 -19zM316 595l150 164l108 -49l-153 -115h-105z" />
    <glyph glyph-name="acircumflex" unicode="&#xe2;" horiz-adv-x="583" 
d="M174 -11q-69 0 -115 40t-46 105q0 89 65 139.5t170 50.5q82 0 158 -26l3 11q6 24 6 42q0 78 -115 78q-73 0 -145 -29l-20 100q88 36 189 36q103 0 157.5 -43t54.5 -121q0 -34 -11 -75l-79 -297h-119l18 69q-75 -80 -171 -80zM221 78q55 0 101 37t59 87l6 23
q-66 20 -120 20q-60 0 -95 -26.5t-35 -68.5q0 -34 22.5 -53t61.5 -19zM191 595l155 147h113l77 -147h-90l-59 67l-96 -67h-100z" />
    <glyph glyph-name="atilde" unicode="&#xe3;" horiz-adv-x="583" 
d="M174 -11q-69 0 -115 40t-46 105q0 89 65 139.5t170 50.5q82 0 158 -26l3 11q6 24 6 42q0 78 -115 78q-73 0 -145 -29l-20 100q88 36 189 36q103 0 157.5 -43t54.5 -121q0 -34 -11 -75l-79 -297h-119l18 69q-75 -80 -171 -80zM221 78q55 0 101 37t59 87l6 23
q-66 20 -120 20q-60 0 -95 -26.5t-35 -68.5q0 -34 22.5 -53t61.5 -19zM252 585l-67 22q28 64 57 93.5t73 29.5q29 0 74.5 -20t61.5 -20q21 0 34 11t30 39l67 -22q-29 -64 -58 -93.5t-72 -29.5q-30 0 -75.5 20t-60.5 20q-21 0 -34.5 -11.5t-29.5 -38.5z" />
    <glyph glyph-name="adieresis" unicode="&#xe4;" horiz-adv-x="583" 
d="M174 -11q-69 0 -115 40t-46 105q0 89 65 139.5t170 50.5q82 0 158 -26l3 11q6 24 6 42q0 78 -115 78q-73 0 -145 -29l-20 100q88 36 189 36q103 0 157.5 -43t54.5 -121q0 -34 -11 -75l-79 -297h-119l18 69q-75 -80 -171 -80zM221 78q55 0 101 37t59 87l6 23
q-66 20 -120 20q-60 0 -95 -26.5t-35 -68.5q0 -34 22.5 -53t61.5 -19zM407 595l32 119h123l-33 -119h-122zM208 595l32 119h123l-32 -119h-123z" />
    <glyph glyph-name="aring" unicode="&#xe5;" horiz-adv-x="583" 
d="M174 -11q-69 0 -115 40t-46 105q0 89 65 139.5t170 50.5q82 0 158 -26l3 11q6 24 6 42q0 78 -115 78q-73 0 -145 -29l-20 100q88 36 189 36q103 0 157.5 -43t54.5 -121q0 -34 -11 -75l-79 -297h-119l18 69q-75 -80 -171 -80zM221 78q55 0 101 37t59 87l6 23
q-66 20 -120 20q-60 0 -95 -26.5t-35 -68.5q0 -34 22.5 -53t61.5 -19zM389 593q-47 0 -77 28.5t-30 70.5q0 50 37 87.5t89 37.5q48 0 77.5 -28.5t29.5 -70.5q0 -50 -37 -87.5t-89 -37.5zM391 638q31 0 52 23t21 53q0 26 -16 42t-42 16q-30 0 -51 -23.5t-21 -52.5
q0 -26 15.5 -42t41.5 -16z" />
    <glyph glyph-name="ae" unicode="&#xe6;" horiz-adv-x="948" 
d="M431 92q-112 -103 -233 -103q-85 0 -135 41t-50 111q0 86 65 134.5t170 48.5q82 0 158 -26l3 11q6 24 6 42q0 78 -115 78q-73 0 -145 -29l-20 100q88 36 189 36q145 0 183 -90q85 93 200 93q96 0 151.5 -58t55.5 -147q0 -57 -23 -112h-384q0 -62 35.5 -98.5t101.5 -36.5
q67 0 136 51l57 -77q-84 -73 -204 -73q-144 0 -202 104zM520 302h275q4 18 4 37q0 44 -26 72.5t-79 28.5q-59 0 -106 -38.5t-68 -99.5zM400 221q-68 24 -133 24q-60 0 -95 -26.5t-35 -68.5q0 -34 24.5 -53t68.5 -19q41 0 90.5 24.5t84.5 61.5q-5 30 -5 57z" />
    <glyph glyph-name="ccedilla" unicode="&#xe7;" horiz-adv-x="561" 
d="M181 -166l-93 45l115 121q-72 23 -115.5 81.5t-43.5 141.5q0 129 93 222.5t219 93.5q146 0 214 -120l-94 -64q-24 38 -53.5 58.5t-76.5 20.5q-72 0 -126.5 -63t-54.5 -147q0 -60 36 -96t89 -36q68 0 135 59l64 -79q-91 -83 -202 -84z" />
    <glyph glyph-name="egrave" unicode="&#xe8;" horiz-adv-x="600" 
d="M159 220q1 -61 36.5 -97t100.5 -36q68 0 135 51l58 -77q-89 -73 -205 -73q-110 0 -175 62.5t-65 168.5q0 79 38.5 152t111.5 120.5t161 47.5q98 0 154.5 -58t56.5 -147q0 -52 -23 -114h-384zM172 303h274q5 13 5 36q0 44 -26.5 72.5t-78.5 28.5q-60 0 -106.5 -38
t-67.5 -99zM344 595l-91 115l113 49l61 -164h-83z" />
    <glyph glyph-name="eacute" unicode="&#xe9;" horiz-adv-x="600" 
d="M340 595l150 164l108 -49l-153 -115h-105zM159 220q1 -61 36.5 -97t100.5 -36q68 0 135 51l58 -77q-89 -73 -205 -73q-110 0 -175 62.5t-65 168.5q0 79 38.5 152t111.5 120.5t161 47.5q98 0 154.5 -58t56.5 -147q0 -52 -23 -114h-384zM172 303h274q5 13 5 36
q0 44 -26.5 72.5t-78.5 28.5q-60 0 -106.5 -38t-67.5 -99z" />
    <glyph glyph-name="ecircumflex" unicode="&#xea;" horiz-adv-x="600" 
d="M215 595l155 147h113l77 -147h-90l-59 67l-96 -67h-100zM159 220q1 -61 36.5 -97t100.5 -36q68 0 135 51l58 -77q-89 -73 -205 -73q-110 0 -175 62.5t-65 168.5q0 79 38.5 152t111.5 120.5t161 47.5q98 0 154.5 -58t56.5 -147q0 -52 -23 -114h-384zM172 303h274
q5 13 5 36q0 44 -26.5 72.5t-78.5 28.5q-60 0 -106.5 -38t-67.5 -99z" />
    <glyph glyph-name="edieresis" unicode="&#xeb;" horiz-adv-x="600" 
d="M431 595l32 119h123l-33 -119h-122zM232 595l32 119h123l-32 -119h-123zM159 220q1 -61 36.5 -97t100.5 -36q68 0 135 51l58 -77q-89 -73 -205 -73q-110 0 -175 62.5t-65 168.5q0 79 38.5 152t111.5 120.5t161 47.5q98 0 154.5 -58t56.5 -147q0 -52 -23 -114h-384z
M172 303h274q5 13 5 36q0 44 -26.5 72.5t-78.5 28.5q-60 0 -106.5 -38t-67.5 -99z" />
    <glyph glyph-name="igrave" unicode="&#xec;" horiz-adv-x="286" 
d="M12 0l142 528h121l-142 -528h-121zM183 595l-91 115l113 49l61 -164h-83z" />
    <glyph glyph-name="iacute" unicode="&#xed;" horiz-adv-x="286" 
d="M180 595l150 164l108 -49l-153 -115h-105zM12 0l142 528h121l-142 -528h-121z" />
    <glyph glyph-name="icircumflex" unicode="&#xee;" horiz-adv-x="286" 
d="M55 595l155 147h113l77 -147h-90l-59 67l-96 -67h-100zM12 0l142 528h121l-142 -528h-121z" />
    <glyph glyph-name="idieresis" unicode="&#xef;" horiz-adv-x="286" 
d="M271 595l32 119h123l-33 -119h-122zM72 595l32 119h123l-32 -119h-123zM12 0l142 528h121l-142 -528h-121z" />
    <glyph glyph-name="eth" unicode="&#xf0;" horiz-adv-x="644" 
d="M596 673l-97 -31q102 -153 102 -300q0 -163 -103 -266q-88 -88 -214 -88q-108 0 -174 65t-66 173q0 123 81.5 212t197.5 89q91 0 155 -75q-26 70 -90 156l-133 -42l-22 66l108 34q-19 22 -59 64h150l24 -29l116 37zM294 91q75 0 129.5 61t54.5 140q0 62 -37.5 100.5
t-98.5 38.5q-76 0 -127.5 -59.5t-51.5 -139.5q0 -65 34.5 -103t96.5 -38z" />
    <glyph glyph-name="ntilde" unicode="&#xf1;" horiz-adv-x="617" 
d="M5 0l141 528h121l-18 -68q79 79 160 79q74 0 117.5 -42.5t43.5 -115.5q0 -31 -16 -93l-76 -288h-121l78 293q8 27 8 53q0 40 -24 61.5t-68 21.5q-50 0 -89.5 -36.5t-55.5 -95.5l-80 -297h-121zM274 585l-67 22q28 64 57 93.5t73 29.5q29 0 74.5 -20t61.5 -20q21 0 34 11
t30 39l67 -22q-29 -64 -58 -93.5t-72 -29.5q-30 0 -75.5 20t-60.5 20q-21 0 -34.5 -11.5t-29.5 -38.5z" />
    <glyph glyph-name="ograve" unicode="&#xf2;" horiz-adv-x="646" 
d="M293 -12q-112 0 -180 67.5t-68 173.5q0 122 91 216t217 94q112 0 180 -68t68 -174q0 -122 -91.5 -215.5t-216.5 -93.5zM300 93q74 0 127.5 63t53.5 138q0 66 -37 103t-98 37q-75 0 -128 -63.5t-53 -137.5q0 -66 37 -103t98 -37zM357 595l-91 115l113 49l61 -164h-83z" />
    <glyph glyph-name="oacute" unicode="&#xf3;" horiz-adv-x="646" 
d="M349 595l150 164l108 -49l-153 -115h-105zM293 -12q-112 0 -180 67.5t-68 173.5q0 122 91 216t217 94q112 0 180 -68t68 -174q0 -122 -91.5 -215.5t-216.5 -93.5zM300 93q74 0 127.5 63t53.5 138q0 66 -37 103t-98 37q-75 0 -128 -63.5t-53 -137.5q0 -66 37 -103t98 -37z
" />
    <glyph glyph-name="ocircumflex" unicode="&#xf4;" horiz-adv-x="646" 
d="M229 595l155 147h113l77 -147h-90l-59 67l-96 -67h-100zM293 -12q-112 0 -180 67.5t-68 173.5q0 122 91 216t217 94q112 0 180 -68t68 -174q0 -122 -91.5 -215.5t-216.5 -93.5zM300 93q74 0 127.5 63t53.5 138q0 66 -37 103t-98 37q-75 0 -128 -63.5t-53 -137.5
q0 -66 37 -103t98 -37z" />
    <glyph glyph-name="otilde" unicode="&#xf5;" horiz-adv-x="646" 
d="M293 -12q-112 0 -180 67.5t-68 173.5q0 122 91 216t217 94q112 0 180 -68t68 -174q0 -122 -91.5 -215.5t-216.5 -93.5zM300 93q74 0 127.5 63t53.5 138q0 66 -37 103t-98 37q-75 0 -128 -63.5t-53 -137.5q0 -66 37 -103t98 -37zM291 585l-67 22q28 64 57 93.5t73 29.5
q29 0 74.5 -20t61.5 -20q21 0 34 11t30 39l67 -22q-29 -64 -58 -93.5t-72 -29.5q-30 0 -75.5 20t-60.5 20q-21 0 -34.5 -11.5t-29.5 -38.5z" />
    <glyph glyph-name="odieresis" unicode="&#xf6;" horiz-adv-x="646" 
d="M445 595l32 119h123l-33 -119h-122zM246 595l32 119h123l-32 -119h-123zM293 -12q-112 0 -180 67.5t-68 173.5q0 122 91 216t217 94q112 0 180 -68t68 -174q0 -122 -91.5 -215.5t-216.5 -93.5zM300 93q74 0 127.5 63t53.5 138q0 66 -37 103t-98 37q-75 0 -128 -63.5
t-53 -137.5q0 -66 37 -103t98 -37z" />
    <glyph glyph-name="divide" unicode="&#xf7;" horiz-adv-x="634" 
d="M313 497l34 127h133l-34 -127h-133zM576 300h-498l28 104h498zM202 80l33 128h134l-34 -128h-133z" />
    <glyph glyph-name="oslash" unicode="&#xf8;" horiz-adv-x="646" 
d="M293 -12q-101 0 -169 58l-58 -51h-114l124 109q-31 56 -31 125q0 122 91 216t217 94q99 0 165 -56l58 51h113l-121 -107q33 -56 33 -130q0 -122 -91.5 -215.5t-216.5 -93.5zM169 181l265 231q-35 26 -85 26q-78 0 -133 -65t-55 -140q0 -28 8 -52zM297 89q78 0 133 64.5
t55 140.5q0 33 -9 57l-267 -234q34 -28 88 -28z" />
    <glyph glyph-name="ugrave" unicode="&#xf9;" horiz-adv-x="618" 
d="M209 -11q-74 0 -117.5 42.5t-43.5 115.5q0 31 16 93l77 288h121l-79 -293q-7 -28 -7 -53q0 -40 23.5 -61.5t67.5 -21.5q50 0 89.5 36.5t55.5 95.5l80 297h121l-141 -528h-121l18 68q-79 -79 -160 -79zM343 595l-91 115l113 49l61 -164h-83z" />
    <glyph glyph-name="uacute" unicode="&#xfa;" horiz-adv-x="618" 
d="M339 595l150 164l108 -49l-153 -115h-105zM209 -11q-74 0 -117.5 42.5t-43.5 115.5q0 31 16 93l77 288h121l-79 -293q-7 -28 -7 -53q0 -40 23.5 -61.5t67.5 -21.5q50 0 89.5 36.5t55.5 95.5l80 297h121l-141 -528h-121l18 68q-79 -79 -160 -79z" />
    <glyph glyph-name="ucircumflex" unicode="&#xfb;" horiz-adv-x="618" 
d="M213 595l155 147h113l77 -147h-90l-59 67l-96 -67h-100zM209 -11q-74 0 -117.5 42.5t-43.5 115.5q0 31 16 93l77 288h121l-79 -293q-7 -28 -7 -53q0 -40 23.5 -61.5t67.5 -21.5q50 0 89.5 36.5t55.5 95.5l80 297h121l-141 -528h-121l18 68q-79 -79 -160 -79z" />
    <glyph glyph-name="udieresis" unicode="&#xfc;" horiz-adv-x="618" 
d="M429 595l32 119h123l-33 -119h-122zM230 595l32 119h123l-32 -119h-123zM209 -11q-74 0 -117.5 42.5t-43.5 115.5q0 31 16 93l77 288h121l-79 -293q-7 -28 -7 -53q0 -40 23.5 -61.5t67.5 -21.5q50 0 89.5 36.5t55.5 95.5l80 297h121l-141 -528h-121l18 68
q-79 -79 -160 -79z" />
    <glyph glyph-name="yacute" unicode="&#xfd;" horiz-adv-x="585" 
d="M65 -163q-67 0 -119 36l64 89q32 -23 68 -23q46 0 90 59l-77 530h124l44 -391l233 391h132l-341 -543q-53 -81 -103 -114.5t-115 -33.5zM313 595l150 164l108 -49l-153 -115h-105z" />
    <glyph glyph-name="thorn" unicode="&#xfe;" horiz-adv-x="668" 
d="M-38 -160l239 890h121l-74 -272q81 81 169 81q90 0 148 -61.5t58 -164.5q0 -137 -88.5 -230.5t-204.5 -93.5q-122 0 -179 105l-67 -254h-122zM315 92q75 0 128.5 62.5t53.5 150.5q0 60 -34 95t-91 35q-74 0 -132 -63t-58 -146q0 -58 37.5 -96t95.5 -38z" />
    <glyph glyph-name="ydieresis" unicode="&#xff;" horiz-adv-x="585" 
d="M65 -163q-67 0 -119 36l64 89q32 -23 68 -23q46 0 90 59l-77 530h124l44 -391l233 391h132l-341 -543q-53 -81 -103 -114.5t-115 -33.5zM404 595l32 119h123l-33 -119h-122zM205 595l32 119h123l-32 -119h-123z" />
    <glyph glyph-name="Amacron" unicode="&#x100;" horiz-adv-x="763" 
d="M-50 0l497 705h118l119 -705h-126l-27 169h-331l-117 -169h-133zM275 278h241l-45 283zM347 779l24 90h359l-24 -90h-359z" />
    <glyph glyph-name="amacron" unicode="&#x101;" horiz-adv-x="583" 
d="M174 -11q-69 0 -115 40t-46 105q0 89 65 139.5t170 50.5q82 0 158 -26l3 11q6 24 6 42q0 78 -115 78q-73 0 -145 -29l-20 100q88 36 189 36q103 0 157.5 -43t54.5 -121q0 -34 -11 -75l-79 -297h-119l18 69q-75 -80 -171 -80zM221 78q55 0 101 37t59 87l6 23
q-66 20 -120 20q-60 0 -95 -26.5t-35 -68.5q0 -34 22.5 -53t61.5 -19zM200 606l24 88h343l-24 -88h-343z" />
    <glyph glyph-name="Abreve" unicode="&#x102;" horiz-adv-x="763" 
d="M-50 0l497 705h118l119 -705h-126l-27 169h-331l-117 -169h-133zM275 278h241l-45 283zM523 766q-73 0 -110.5 35.5t-26.5 98.5h80q5 -50 75 -50q67 0 99 50h92q-23 -64 -79 -99t-130 -35z" />
    <glyph glyph-name="abreve" unicode="&#x103;" horiz-adv-x="583" 
d="M174 -11q-69 0 -115 40t-46 105q0 89 65 139.5t170 50.5q82 0 158 -26l3 11q6 24 6 42q0 78 -115 78q-73 0 -145 -29l-20 100q88 36 189 36q103 0 157.5 -43t54.5 -121q0 -34 -11 -75l-79 -297h-119l18 69q-75 -80 -171 -80zM221 78q55 0 101 37t59 87l6 23
q-66 20 -120 20q-60 0 -95 -26.5t-35 -68.5q0 -34 22.5 -53t61.5 -19zM379 593q-77 0 -114 40.5t-33 104.5h84q1 -27 18.5 -44t51.5 -17q66 0 105 61h86q-22 -65 -74 -105t-124 -40z" />
    <glyph glyph-name="Aogonek" unicode="&#x104;" horiz-adv-x="763" 
d="M512 -100q0 46 68 100h-22l-27 169h-331l-117 -169h-133l497 705h118l119 -705h-19q-55 -48 -55 -75q0 -30 61 -31l-15 -58q-20 -3 -37 -3q-107 3 -107 67zM275 278h241l-45 283z" />
    <glyph glyph-name="aogonek" unicode="&#x105;" horiz-adv-x="583" 
d="M276 -100q0 46 68 100h-17l18 69q-75 -80 -171 -80q-69 0 -115 40t-46 105q0 89 65 139.5t170 50.5q82 0 158 -26l3 11q6 24 6 42q0 78 -115 78q-73 0 -145 -29l-20 100q88 36 189 36q103 0 157.5 -43t54.5 -121q0 -34 -11 -75l-79 -297h-17q-55 -48 -55 -75
q0 -30 61 -31l-15 -58q-20 -3 -37 -3q-107 3 -107 67zM221 78q55 0 101 37t59 87l6 23q-66 20 -120 20q-60 0 -95 -26.5t-35 -68.5q0 -34 22.5 -53t61.5 -19z" />
    <glyph glyph-name="Cacute" unicode="&#x106;" horiz-adv-x="730" 
d="M391 -12q-138 0 -227 81t-89 217q0 111 56.5 209t154.5 157.5t212 59.5q187 0 273 -150l-102 -69q-34 52 -77 79t-108 27q-112 0 -196.5 -92.5t-84.5 -215.5q0 -86 53 -138t137 -52q55 0 97.5 20t88.5 60l81 -82q-114 -111 -269 -111zM470 768l152 145l107 -48l-153 -97
h-106z" />
    <glyph glyph-name="cacute" unicode="&#x107;" horiz-adv-x="561" 
d="M326 595l150 164l108 -49l-153 -115h-105zM286 -12q-104 0 -173 64.5t-69 170.5q0 129 93 222.5t219 93.5q146 0 214 -120l-94 -64q-24 38 -53.5 58.5t-76.5 20.5q-72 0 -126.5 -63t-54.5 -147q0 -60 36 -96t89 -36q68 0 135 59l64 -79q-92 -84 -203 -84z" />
    <glyph glyph-name="Cdotaccent" unicode="&#x10a;" horiz-adv-x="730" 
d="M462 768l31 112h128l-31 -112h-128zM391 -12q-138 0 -227 81t-89 217q0 111 56.5 209t154.5 157.5t212 59.5q187 0 273 -150l-102 -69q-34 52 -77 79t-108 27q-112 0 -196.5 -92.5t-84.5 -215.5q0 -86 53 -138t137 -52q55 0 97.5 20t88.5 60l81 -82q-114 -111 -269 -111z
" />
    <glyph glyph-name="cdotaccent" unicode="&#x10b;" horiz-adv-x="561" 
d="M286 -12q-104 0 -173 64.5t-69 170.5q0 129 93 222.5t219 93.5q146 0 214 -120l-94 -64q-24 38 -53.5 58.5t-76.5 20.5q-72 0 -126.5 -63t-54.5 -147q0 -60 36 -96t89 -36q68 0 135 59l64 -79q-92 -84 -203 -84zM317 594l33 120h125l-33 -120h-125z" />
    <glyph glyph-name="Ccaron" unicode="&#x10c;" horiz-adv-x="730" 
d="M391 -12q-138 0 -227 81t-89 217q0 111 56.5 209t154.5 157.5t212 59.5q187 0 273 -150l-102 -69q-34 52 -77 79t-108 27q-112 0 -196.5 -92.5t-84.5 -215.5q0 -86 53 -138t137 -52q55 0 97.5 20t88.5 60l81 -82q-114 -111 -269 -111zM747 903l-156 -135h-115l-84 135h93
l62 -57l93 57h107z" />
    <glyph glyph-name="ccaron" unicode="&#x10d;" horiz-adv-x="561" 
d="M571 742l-155 -147h-113l-77 147h90l58 -67l97 67h100zM286 -12q-104 0 -173 64.5t-69 170.5q0 129 93 222.5t219 93.5q146 0 214 -120l-94 -64q-24 38 -53.5 58.5t-76.5 20.5q-72 0 -126.5 -63t-54.5 -147q0 -60 36 -96t89 -36q68 0 135 59l64 -79q-92 -84 -203 -84z
" />
    <glyph glyph-name="Dcaron" unicode="&#x10e;" horiz-adv-x="775" 
d="M704 893l-156 -135h-115l-84 135h93l62 -57l93 57h107zM19 0l188 700h190q182 0 273 -91q77 -76 77 -204q0 -161 -113 -274q-131 -131 -364 -131h-251zM172 112h113q161 0 256 95q78 78 78 193q0 80 -49 129q-59 59 -182 59h-87z" />
    <glyph glyph-name="dcaron" unicode="&#x10f;" horiz-adv-x="668" 
d="M725 540l55 190h102v-3l-106 -187h-51zM250 -11q-90 0 -148 61.5t-58 164.5q0 137 88.5 230.5t205.5 93.5q121 0 178 -105l79 296h121l-195 -730h-121l19 70q-81 -81 -169 -81zM296 92q73 0 131.5 63.5t58.5 146.5q0 58 -37.5 95.5t-96.5 37.5q-74 0 -128 -62t-54 -150
q0 -60 34.5 -95.5t91.5 -35.5z" />
    <glyph glyph-name="Dcroat" unicode="&#x110;" horiz-adv-x="798" 
d="M42 0l80 297h-81l30 110h80l79 293h190q182 0 273 -91q77 -76 77 -204q0 -161 -113 -274q-131 -131 -364 -131h-251zM195 112h113q161 0 256 95q78 78 78 193q0 80 -49 129q-59 59 -182 59h-87l-49 -181h169l-30 -110h-169z" />
    <glyph glyph-name="dcroat" unicode="&#x111;" horiz-adv-x="668" 
d="M396 601l20 73h164l15 56h121l-15 -56h68l-19 -73h-69l-160 -601h-121l19 70q-81 -81 -169 -81q-90 0 -148 61.5t-58 164.5q0 137 88.5 230.5t205.5 93.5q121 0 178 -105l44 167h-164zM296 92q73 0 131.5 63.5t58.5 146.5q0 58 -37.5 95.5t-96.5 37.5q-74 0 -128 -62
t-54 -150q0 -60 34.5 -95.5t91.5 -35.5z" />
    <glyph glyph-name="Emacron" unicode="&#x112;" horiz-adv-x="660" 
d="M301 769l24 90h359l-24 -90h-359zM19 0l188 700h514l-30 -110h-391l-49 -183h347l-30 -109h-347l-50 -188h397l-30 -110h-519z" />
    <glyph glyph-name="emacron" unicode="&#x113;" horiz-adv-x="600" 
d="M159 220q1 -61 36.5 -97t100.5 -36q68 0 135 51l58 -77q-89 -73 -205 -73q-110 0 -175 62.5t-65 168.5q0 79 38.5 152t111.5 120.5t161 47.5q98 0 154.5 -58t56.5 -147q0 -52 -23 -114h-384zM172 303h274q5 13 5 36q0 44 -26.5 72.5t-78.5 28.5q-60 0 -106.5 -38
t-67.5 -99zM224 606l24 88h343l-24 -88h-343z" />
    <glyph glyph-name="Ebreve" unicode="&#x114;" horiz-adv-x="660" 
d="M477 756q-73 0 -110.5 35.5t-26.5 98.5h80q5 -50 75 -50q67 0 99 50h92q-23 -64 -79 -99t-130 -35zM19 0l188 700h514l-30 -110h-391l-49 -183h347l-30 -109h-347l-50 -188h397l-30 -110h-519z" />
    <glyph glyph-name="ebreve" unicode="&#x115;" horiz-adv-x="600" 
d="M159 220q1 -61 36.5 -97t100.5 -36q68 0 135 51l58 -77q-89 -73 -205 -73q-110 0 -175 62.5t-65 168.5q0 79 38.5 152t111.5 120.5t161 47.5q98 0 154.5 -58t56.5 -147q0 -52 -23 -114h-384zM172 303h274q5 13 5 36q0 44 -26.5 72.5t-78.5 28.5q-60 0 -106.5 -38
t-67.5 -99zM403 593q-77 0 -114 40.5t-33 104.5h84q1 -27 18.5 -44t51.5 -17q66 0 105 61h86q-22 -65 -74 -105t-124 -40z" />
    <glyph glyph-name="Edotaccent" unicode="&#x116;" horiz-adv-x="660" 
d="M413 758l31 112h128l-31 -112h-128zM19 0l188 700h514l-30 -110h-391l-49 -183h347l-30 -109h-347l-50 -188h397l-30 -110h-519z" />
    <glyph glyph-name="edotaccent" unicode="&#x117;" horiz-adv-x="600" 
d="M159 220q1 -61 36.5 -97t100.5 -36q68 0 135 51l58 -77q-89 -73 -205 -73q-110 0 -175 62.5t-65 168.5q0 79 38.5 152t111.5 120.5t161 47.5q98 0 154.5 -58t56.5 -147q0 -52 -23 -114h-384zM172 303h274q5 13 5 36q0 44 -26.5 72.5t-78.5 28.5q-60 0 -106.5 -38
t-67.5 -99zM331 594l33 120h125l-33 -120h-125z" />
    <glyph glyph-name="Eogonek" unicode="&#x118;" horiz-adv-x="660" 
d="M19 0l188 700h514l-30 -110h-391l-49 -183h347l-30 -109h-347l-50 -188h397l-30 -110h-21q-55 -48 -55 -75q0 -30 61 -31l-15 -58q-20 -3 -37 -3q-107 3 -107 67q0 46 68 100h-413z" />
    <glyph glyph-name="eogonek" unicode="&#x119;" horiz-adv-x="600" 
d="M284 -12q-110 0 -175 62.5t-65 168.5q0 79 38.5 152t111.5 120.5t161 47.5q98 0 154.5 -58t56.5 -147q0 -52 -23 -114h-384q1 -61 36.5 -97t100.5 -36q68 0 135 51l58 -77l-57 -43q-75 -58 -75 -93q0 -30 61 -31l-15 -58q-19 -3 -37 -3q-107 3 -107 67q0 42 55 90
q-18 -2 -30 -2zM172 303h274q5 13 5 36q0 44 -26.5 72.5t-78.5 28.5q-60 0 -106.5 -38t-67.5 -99z" />
    <glyph glyph-name="Ecaron" unicode="&#x11a;" horiz-adv-x="660" 
d="M698 893l-156 -135h-115l-84 135h93l62 -57l93 57h107zM19 0l188 700h514l-30 -110h-391l-49 -183h347l-30 -109h-347l-50 -188h397l-30 -110h-519z" />
    <glyph glyph-name="ecaron" unicode="&#x11b;" horiz-adv-x="600" 
d="M585 742l-155 -147h-113l-77 147h90l58 -67l97 67h100zM159 220q1 -61 36.5 -97t100.5 -36q68 0 135 51l58 -77q-89 -73 -205 -73q-110 0 -175 62.5t-65 168.5q0 79 38.5 152t111.5 120.5t161 47.5q98 0 154.5 -58t56.5 -147q0 -52 -23 -114h-384zM172 303h274q5 13 5 36
q0 44 -26.5 72.5t-78.5 28.5q-60 0 -106.5 -38t-67.5 -99z" />
    <glyph glyph-name="Gbreve" unicode="&#x11e;" horiz-adv-x="782" 
d="M535 766q-73 0 -110.5 35.5t-26.5 98.5h80q5 -50 75 -50q67 0 99 50h92q-23 -64 -79 -99t-130 -35zM395 -12q-132 0 -226.5 79.5t-94.5 221.5q0 108 55.5 205t156.5 157.5t222 60.5q187 0 277 -124l-92 -78q-74 89 -194 89q-124 0 -210 -92t-86 -214q0 -90 56 -141.5
t144 -51.5q80 0 148 36l43 148h-179l29 107h298l-95 -335q-115 -68 -252 -68z" />
    <glyph glyph-name="gbreve" unicode="&#x11f;" horiz-adv-x="666" 
d="M246 -162q-163 0 -271 81l67 84q89 -67 197 -67q82 0 129 47q35 35 55 107l9 32q-86 -80 -181 -80q-83 0 -143 51.5t-60 139.5q0 128 89 217t203 89q68 0 108 -29t66 -77l25 95h121l-116 -436q-19 -71 -39 -110.5t-51 -69.5q-74 -74 -208 -74zM296 141q73 0 128.5 53.5
t55.5 123.5q0 51 -35 84.5t-93 33.5q-72 0 -125 -53.5t-53 -128.5q0 -54 34.5 -83.5t87.5 -29.5zM430 593q-77 0 -114 40.5t-33 104.5h84q1 -27 18.5 -44t51.5 -17q66 0 105 61h86q-22 -65 -74 -105t-124 -40z" />
    <glyph glyph-name="Gdotaccent" unicode="&#x120;" horiz-adv-x="782" 
d="M472 768l31 112h128l-31 -112h-128zM395 -12q-132 0 -226.5 79.5t-94.5 221.5q0 108 55.5 205t156.5 157.5t222 60.5q187 0 277 -124l-92 -78q-74 89 -194 89q-124 0 -210 -92t-86 -214q0 -90 56 -141.5t144 -51.5q80 0 148 36l43 148h-179l29 107h298l-95 -335
q-115 -68 -252 -68z" />
    <glyph glyph-name="gdotaccent" unicode="&#x121;" horiz-adv-x="666" 
d="M246 -162q-163 0 -271 81l67 84q89 -67 197 -67q82 0 129 47q35 35 55 107l9 32q-86 -80 -181 -80q-83 0 -143 51.5t-60 139.5q0 128 89 217t203 89q68 0 108 -29t66 -77l25 95h121l-116 -436q-19 -71 -39 -110.5t-51 -69.5q-74 -74 -208 -74zM296 141q73 0 128.5 53.5
t55.5 123.5q0 51 -35 84.5t-93 33.5q-72 0 -125 -53.5t-53 -128.5q0 -54 34.5 -83.5t87.5 -29.5zM357 594l33 120h125l-33 -120h-125z" />
    <glyph glyph-name="Gcommaaccent" unicode="&#x122;" horiz-adv-x="782" 
d="M220 -275l4 39q75 9 88 68h-55l28 101h118l-23 -86q-17 -62 -55.5 -90.5t-104.5 -31.5zM395 -12q-132 0 -226.5 79.5t-94.5 221.5q0 108 55.5 205t156.5 157.5t222 60.5q187 0 277 -124l-92 -78q-74 89 -194 89q-124 0 -210 -92t-86 -214q0 -90 56 -141.5t144 -51.5
q80 0 148 36l43 148h-179l29 107h298l-95 -335q-115 -68 -252 -68z" />
    <glyph glyph-name="gcommaaccent" unicode="&#x123;" horiz-adv-x="666" 
d="M538 802l-4 -39q-75 -9 -88 -68h55l-28 -101h-118l23 86q17 62 55.5 90.5t104.5 31.5zM246 -162q-163 0 -271 81l67 84q89 -67 197 -67q82 0 129 47q35 35 55 107l9 32q-86 -80 -181 -80q-83 0 -143 51.5t-60 139.5q0 128 89 217t203 89q68 0 108 -29t66 -77l25 95h121
l-116 -436q-19 -71 -39 -110.5t-51 -69.5q-74 -74 -208 -74zM296 141q73 0 128.5 53.5t55.5 123.5q0 51 -35 84.5t-93 33.5q-72 0 -125 -53.5t-53 -128.5q0 -54 34.5 -83.5t87.5 -29.5z" />
    <glyph glyph-name="Hbar" unicode="&#x126;" horiz-adv-x="756" 
d="M85 511l24 87h70l28 102h124l-28 -102h329l28 102h123l-28 -102h72l-24 -87h-71l-137 -511h-123l79 294h-329l-79 -294h-124l137 511h-71zM252 407h329l28 106h-329z" />
    <glyph glyph-name="hbar" unicode="&#x127;" horiz-adv-x="618" 
d="M5 0l160 601h-68l19 73h69l15 56h121l-15 -56h164l-19 -73h-165l-37 -141q79 79 160 79q74 0 117.5 -42.5t43.5 -115.5q0 -31 -16 -93l-76 -288h-121l78 293q8 27 8 53q0 40 -24 61.5t-68 21.5q-50 0 -89.5 -36.5t-55.5 -95.5l-80 -297h-121z" />
    <glyph glyph-name="Imacron" unicode="&#x12a;" horiz-adv-x="317" 
d="M26 0l188 700h124l-188 -700h-124zM115 769l24 90h359l-24 -90h-359z" />
    <glyph glyph-name="imacron" unicode="&#x12b;" horiz-adv-x="286" 
d="M12 0l142 528h121l-142 -528h-121zM64 606l24 88h343l-24 -88h-343z" />
    <glyph glyph-name="Ibreve" unicode="&#x12c;" horiz-adv-x="317" 
d="M26 0l188 700h124l-188 -700h-124zM291 756q-73 0 -110.5 35.5t-26.5 98.5h80q5 -50 75 -50q67 0 99 50h92q-23 -64 -79 -99t-130 -35z" />
    <glyph glyph-name="ibreve" unicode="&#x12d;" horiz-adv-x="286" 
d="M12 0l142 528h121l-142 -528h-121zM242 593q-77 0 -114 40.5t-33 104.5h84q1 -27 18.5 -44t51.5 -17q66 0 105 61h86q-22 -65 -74 -105t-124 -40z" />
    <glyph glyph-name="Iogonek" unicode="&#x12e;" horiz-adv-x="317" 
d="M26 0l188 700h124l-188 -700h-16q-55 -48 -55 -75q0 -30 61 -31l-15 -58q-20 -3 -37 -3q-107 3 -107 67q0 46 68 100h-23z" />
    <glyph glyph-name="iogonek" unicode="&#x12f;" horiz-adv-x="286" 
d="M12 0l142 528h121l-142 -528h-17q-55 -48 -55 -75q0 -30 61 -31l-15 -58q-20 -3 -37 -3q-107 3 -107 67q0 44 68 100h-19zM171 609l31 115h131l-32 -115h-130z" />
    <glyph glyph-name="Idotaccent" unicode="&#x130;" horiz-adv-x="317" 
d="M26 0l188 700h124l-188 -700h-124zM227 758l31 112h128l-31 -112h-128z" />
    <glyph glyph-name="dotlessi" unicode="&#x131;" horiz-adv-x="286" 
d="M12 0l142 528h121l-142 -528h-121z" />
    <glyph glyph-name="Kcommaaccent" unicode="&#x136;" horiz-adv-x="723" 
d="M176 -267l4 39q75 9 88 68h-55l28 101h118l-23 -86q-17 -62 -55.5 -90.5t-104.5 -31.5zM19 0l188 700h124l-95 -354l410 354h169l-356 -299l179 -401h-136l-141 328l-169 -142l-49 -186h-124z" />
    <glyph glyph-name="kcommaaccent" unicode="&#x137;" horiz-adv-x="582" 
d="M90 -272l4 39q75 9 88 68h-55l28 101h118l-23 -86q-17 -62 -55.5 -90.5t-104.5 -31.5zM5 0l196 730h121l-114 -427l270 225h160l-266 -215l127 -313h-136l-94 235l-102 -82l-41 -153h-121z" />
    <glyph glyph-name="Lacute" unicode="&#x139;" horiz-adv-x="618" 
d="M246 758l152 145l107 -48l-153 -97h-106zM19 0l188 700h124l-158 -588h368l-31 -112h-491z" />
    <glyph glyph-name="lacute" unicode="&#x13a;" horiz-adv-x="286" 
d="M232 775l152 145l107 -48l-153 -97h-106zM12 0l196 730h121l-196 -730h-121z" />
    <glyph glyph-name="Lcommaaccent" unicode="&#x13b;" horiz-adv-x="618" 
d="M117 -272l4 39q75 9 88 68h-55l28 101h118l-23 -86q-17 -62 -55.5 -90.5t-104.5 -31.5zM19 0l188 700h124l-158 -588h368l-31 -112h-491z" />
    <glyph glyph-name="lcommaaccent" unicode="&#x13c;" horiz-adv-x="286" 
d="M-62 -272l4 39q75 9 88 68h-55l28 101h118l-23 -86q-17 -62 -55.5 -90.5t-104.5 -31.5zM12 0l196 730h121l-196 -730h-121z" />
    <glyph glyph-name="Lcaron" unicode="&#x13d;" horiz-adv-x="618" 
d="M343 510l55 190h102v-3l-106 -187h-51zM19 0l188 700h124l-158 -588h368l-31 -112h-491z" />
    <glyph glyph-name="lcaron" unicode="&#x13e;" horiz-adv-x="286" 
d="M338 540l55 190h102v-3l-106 -187h-51zM12 0l196 730h121l-196 -730h-121z" />
    <glyph glyph-name="Ldot" unicode="&#x13f;" horiz-adv-x="624" 
d="M429 317l32 119h123l-33 -119h-122zM19 0l188 700h124l-158 -588h368l-31 -112h-491z" />
    <glyph glyph-name="ldot" unicode="&#x140;" horiz-adv-x="367" 
d="M289 319l30 112h106l-30 -112h-106zM12 0l196 730h121l-196 -730h-121z" />
    <glyph glyph-name="Lslash" unicode="&#x141;" horiz-adv-x="655" 
d="M56 0l75 278l-81 -22l31 114l80 22l83 308h124l-73 -270l216 60l-30 -114l-216 -60l-55 -204h368l-31 -112h-491z" />
    <glyph glyph-name="lslash" unicode="&#x142;" horiz-adv-x="344" 
d="M334 355l-82 -23l-89 -332h-121l79 296l-80 -22l30 115l81 22l86 319h121l-76 -283l82 23z" />
    <glyph glyph-name="Nacute" unicode="&#x143;" horiz-adv-x="786" 
d="M469 757l152 145l107 -48l-153 -97h-106zM19 0l188 700h114l237 -495l134 495h121l-188 -700h-103l-245 509l-136 -509h-122z" />
    <glyph glyph-name="nacute" unicode="&#x144;" horiz-adv-x="617" 
d="M338 595l150 164l108 -49l-153 -115h-105zM5 0l141 528h121l-18 -68q79 79 160 79q74 0 117.5 -42.5t43.5 -115.5q0 -31 -16 -93l-76 -288h-121l78 293q8 27 8 53q0 40 -24 61.5t-68 21.5q-50 0 -89.5 -36.5t-55.5 -95.5l-80 -297h-121z" />
    <glyph glyph-name="Ncommaaccent" unicode="&#x145;" horiz-adv-x="786" 
d="M188 -267l4 39q75 9 88 68h-55l28 101h118l-23 -86q-17 -62 -55.5 -90.5t-104.5 -31.5zM19 0l188 700h114l237 -495l134 495h121l-188 -700h-103l-245 509l-136 -509h-122z" />
    <glyph glyph-name="ncommaaccent" unicode="&#x146;" horiz-adv-x="617" 
d="M97 -272l4 39q75 9 88 68h-55l28 101h118l-23 -86q-17 -62 -55.5 -90.5t-104.5 -31.5zM5 0l141 528h121l-18 -68q79 79 160 79q74 0 117.5 -42.5t43.5 -115.5q0 -31 -16 -93l-76 -288h-121l78 293q8 27 8 53q0 40 -24 61.5t-68 21.5q-50 0 -89.5 -36.5t-55.5 -95.5
l-80 -297h-121z" />
    <glyph glyph-name="Ncaron" unicode="&#x147;" horiz-adv-x="786" 
d="M745 892l-156 -135h-115l-84 135h93l62 -57l93 57h107zM19 0l188 700h114l237 -495l134 495h121l-188 -700h-103l-245 509l-136 -509h-122z" />
    <glyph glyph-name="ncaron" unicode="&#x148;" horiz-adv-x="617" 
d="M583 742l-155 -147h-113l-77 147h90l58 -67l97 67h100zM5 0l141 528h121l-18 -68q79 79 160 79q74 0 117.5 -42.5t43.5 -115.5q0 -31 -16 -93l-76 -288h-121l78 293q8 27 8 53q0 40 -24 61.5t-68 21.5q-50 0 -89.5 -36.5t-55.5 -95.5l-80 -297h-121z" />
    <glyph glyph-name="Omacron" unicode="&#x14c;" horiz-adv-x="836" 
d="M367 779l24 90h359l-24 -90h-359zM390 -12q-139 0 -226.5 87.5t-87.5 219.5q0 106 52.5 201.5t149 155.5t213.5 60q139 0 227 -87.5t88 -219.5q0 -106 -52.5 -201.5t-149.5 -155.5t-214 -60zM403 101q78 0 142.5 44.5t98.5 112.5t34 140q0 88 -53.5 144.5t-145.5 56.5
q-78 0 -142.5 -44.5t-98.5 -112.5t-34 -140q0 -89 53.5 -145t145.5 -56z" />
    <glyph glyph-name="omacron" unicode="&#x14d;" horiz-adv-x="646" 
d="M238 606l24 88h343l-24 -88h-343zM293 -12q-112 0 -180 67.5t-68 173.5q0 122 91 216t217 94q112 0 180 -68t68 -174q0 -122 -91.5 -215.5t-216.5 -93.5zM300 93q74 0 127.5 63t53.5 138q0 66 -37 103t-98 37q-75 0 -128 -63.5t-53 -137.5q0 -66 37 -103t98 -37z" />
    <glyph glyph-name="Obreve" unicode="&#x14e;" horiz-adv-x="836" 
d="M542 766q-73 0 -110.5 35.5t-26.5 98.5h80q5 -50 75 -50q67 0 99 50h92q-23 -64 -79 -99t-130 -35zM390 -12q-139 0 -226.5 87.5t-87.5 219.5q0 106 52.5 201.5t149 155.5t213.5 60q139 0 227 -87.5t88 -219.5q0 -106 -52.5 -201.5t-149.5 -155.5t-214 -60zM403 101
q78 0 142.5 44.5t98.5 112.5t34 140q0 88 -53.5 144.5t-145.5 56.5q-78 0 -142.5 -44.5t-98.5 -112.5t-34 -140q0 -89 53.5 -145t145.5 -56z" />
    <glyph glyph-name="obreve" unicode="&#x14f;" horiz-adv-x="646" 
d="M293 -12q-112 0 -180 67.5t-68 173.5q0 122 91 216t217 94q112 0 180 -68t68 -174q0 -122 -91.5 -215.5t-216.5 -93.5zM300 93q74 0 127.5 63t53.5 138q0 66 -37 103t-98 37q-75 0 -128 -63.5t-53 -137.5q0 -66 37 -103t98 -37zM417 593q-77 0 -114 40.5t-33 104.5h84
q1 -27 18.5 -44t51.5 -17q66 0 105 61h86q-22 -65 -74 -105t-124 -40z" />
    <glyph glyph-name="Ohungarumlaut" unicode="&#x150;" horiz-adv-x="836" 
d="M390 -12q-139 0 -226.5 87.5t-87.5 219.5q0 106 52.5 201.5t149 155.5t213.5 60q139 0 227 -87.5t88 -219.5q0 -106 -52.5 -201.5t-149.5 -155.5t-214 -60zM403 101q78 0 142.5 44.5t98.5 112.5t34 140q0 88 -53.5 144.5t-145.5 56.5q-78 0 -142.5 -44.5t-98.5 -112.5
t-34 -140q0 -89 53.5 -145t145.5 -56zM380 768l152 145l104 -48l-154 -97h-102zM559 768l152 145l104 -48l-154 -97h-102z" />
    <glyph glyph-name="ohungarumlaut" unicode="&#x151;" horiz-adv-x="646" 
d="M408 595l150 164l93 -49l-153 -115h-90zM226 595l149 164l93 -49l-152 -115h-90zM293 -12q-112 0 -180 67.5t-68 173.5q0 122 91 216t217 94q112 0 180 -68t68 -174q0 -122 -91.5 -215.5t-216.5 -93.5zM300 93q74 0 127.5 63t53.5 138q0 66 -37 103t-98 37
q-75 0 -128 -63.5t-53 -137.5q0 -66 37 -103t98 -37z" />
    <glyph glyph-name="OE" unicode="&#x152;" horiz-adv-x="1096" 
d="M424 0q-182 0 -277 95q-72 72 -72 200q0 163 113 274q131 131 363 131h601l-30 -110h-374l-49 -183h330l-30 -109h-329l-51 -188h380l-30 -110h-545zM434 112h63l128 476h-88q-162 0 -257 -95q-77 -77 -77 -193q0 -81 48 -129q59 -59 183 -59z" />
    <glyph glyph-name="oe" unicode="&#x153;" horiz-adv-x="1033" 
d="M593 222q0 -62 35.5 -98.5t101.5 -36.5q67 0 136 51l57 -77q-84 -73 -204 -73q-74 0 -126.5 30t-76.5 85q-87 -115 -223 -115q-111 0 -179.5 68t-68.5 173q0 123 90.5 216.5t216.5 93.5q77 0 130.5 -33.5t77.5 -89.5q87 123 229 123q99 0 155 -58t56 -147q0 -57 -23 -112
h-384zM606 302h274q5 15 5 37q0 44 -26.5 72.5t-78.5 28.5q-59 0 -106 -38.5t-68 -99.5zM299 93q76 0 129 61t53 138q0 65 -37 103.5t-97 38.5q-76 0 -129 -62t-53 -139q0 -63 37 -101.5t97 -38.5z" />
    <glyph glyph-name="Racute" unicode="&#x154;" horiz-adv-x="723" 
d="M19 0l188 700h254q145 0 212 -68q51 -51 51 -132q0 -98 -64 -160q-61 -62 -175 -84l130 -256h-141l-120 244h-146l-65 -244h-124zM237 353h159q114 0 165 53q35 35 35 84q0 37 -25 64q-36 34 -117 34h-153zM406 758l152 145l107 -48l-153 -97h-106z" />
    <glyph glyph-name="racute" unicode="&#x155;" horiz-adv-x="412" 
d="M243 595l150 164l108 -49l-153 -115h-105zM5 0l141 528h121l-31 -119q95 137 221 129l-34 -128h-7q-83 0 -146 -54t-91 -160l-53 -196h-121z" />
    <glyph glyph-name="Rcommaaccent" unicode="&#x156;" horiz-adv-x="723" 
d="M156 -267l4 39q75 9 88 68h-55l28 101h118l-23 -86q-17 -62 -55.5 -90.5t-104.5 -31.5zM19 0l188 700h254q145 0 212 -68q51 -51 51 -132q0 -98 -64 -160q-61 -62 -175 -84l130 -256h-141l-120 244h-146l-65 -244h-124zM237 353h159q114 0 165 53q35 35 35 84
q0 37 -25 64q-36 34 -117 34h-153z" />
    <glyph glyph-name="rcommaaccent" unicode="&#x157;" horiz-adv-x="412" 
d="M-62 -272l4 39q75 9 88 68h-55l28 101h118l-23 -86q-17 -62 -55.5 -90.5t-104.5 -31.5zM5 0l141 528h121l-31 -119q95 137 221 129l-34 -128h-7q-83 0 -146 -54t-91 -160l-53 -196h-121z" />
    <glyph glyph-name="Rcaron" unicode="&#x158;" horiz-adv-x="723" 
d="M683 893l-156 -135h-115l-84 135h93l62 -57l93 57h107zM19 0l188 700h254q145 0 212 -68q51 -51 51 -132q0 -98 -64 -160q-61 -62 -175 -84l130 -256h-141l-120 244h-146l-65 -244h-124zM237 353h159q114 0 165 53q35 35 35 84q0 37 -25 64q-36 34 -117 34h-153z" />
    <glyph glyph-name="rcaron" unicode="&#x159;" horiz-adv-x="412" 
d="M488 742l-155 -147h-113l-77 147h90l58 -67l97 67h100zM5 0l141 528h121l-31 -119q95 137 221 129l-34 -128h-7q-83 0 -146 -54t-91 -160l-53 -196h-121z" />
    <glyph glyph-name="Sacute" unicode="&#x15a;" horiz-adv-x="637" 
d="M296 -10q-198 0 -297 131l93 77q87 -99 211 -99q59 0 97 27t38 70q0 32 -27.5 54.5t-101.5 51.5q-90 36 -135 78t-45 110q0 97 77 158.5t192 61.5q162 0 257 -105l-86 -84q-82 80 -180 80q-59 0 -94.5 -27.5t-35.5 -64.5q0 -33 28.5 -54.5t107.5 -52.5
q87 -34 130.5 -76.5t43.5 -111.5q0 -100 -79.5 -162t-193.5 -62zM381 768l152 145l107 -48l-153 -97h-106z" />
    <glyph glyph-name="sacute" unicode="&#x15b;" horiz-adv-x="499" 
d="M273 595l150 164l108 -49l-153 -115h-105zM217 -12q-63 0 -126 24.5t-107 70.5l72 74q74 -74 170 -74q37 0 61 17t24 46q0 19 -18 34t-59 32q-78 32 -115 63.5t-37 87.5q0 76 56.5 125.5t150.5 49.5q58 0 112.5 -21.5t90.5 -52.5l-67 -78q-73 58 -145 58q-38 0 -59.5 -17
t-21.5 -43q0 -20 19 -35t65 -34q71 -30 108 -62.5t37 -85.5q0 -80 -59.5 -129.5t-151.5 -49.5z" />
    <glyph glyph-name="Scedilla" unicode="&#x15e;" horiz-adv-x="637" 
d="M186 -166l-93 45l112 119q-133 24 -206 123l93 77q87 -99 211 -99q59 0 97 27t38 70q0 32 -27.5 54.5t-101.5 51.5q-90 36 -135 78t-45 110q0 97 77 158.5t192 61.5q162 0 257 -105l-86 -84q-82 80 -180 80q-59 0 -94.5 -27.5t-35.5 -64.5q0 -33 28.5 -54.5t107.5 -52.5
q87 -34 130.5 -76.5t43.5 -111.5q0 -100 -79.5 -162t-193.5 -62h-2z" />
    <glyph glyph-name="scedilla" unicode="&#x15f;" horiz-adv-x="499" 
d="M117 -166l-93 45l112 119q-91 21 -152 85l72 74q74 -74 170 -74q37 0 61 17t24 46q0 19 -18 34t-59 32q-78 32 -115 63.5t-37 87.5q0 76 56.5 125.5t150.5 49.5q58 0 112.5 -21.5t90.5 -52.5l-67 -78q-73 58 -145 58q-38 0 -59.5 -17t-21.5 -43q0 -20 19 -35t65 -34
q71 -30 108 -62.5t37 -85.5q0 -79 -58 -128t-147 -51z" />
    <glyph glyph-name="Scaron" unicode="&#x160;" horiz-adv-x="637" 
d="M296 -10q-198 0 -297 131l93 77q87 -99 211 -99q59 0 97 27t38 70q0 32 -27.5 54.5t-101.5 51.5q-90 36 -135 78t-45 110q0 97 77 158.5t192 61.5q162 0 257 -105l-86 -84q-82 80 -180 80q-59 0 -94.5 -27.5t-35.5 -64.5q0 -33 28.5 -54.5t107.5 -52.5
q87 -34 130.5 -76.5t43.5 -111.5q0 -100 -79.5 -162t-193.5 -62zM658 903l-156 -135h-115l-84 135h93l62 -57l93 57h107z" />
    <glyph glyph-name="scaron" unicode="&#x161;" horiz-adv-x="499" 
d="M518 742l-155 -147h-113l-77 147h90l58 -67l97 67h100zM217 -12q-63 0 -126 24.5t-107 70.5l72 74q74 -74 170 -74q37 0 61 17t24 46q0 19 -18 34t-59 32q-78 32 -115 63.5t-37 87.5q0 76 56.5 125.5t150.5 49.5q58 0 112.5 -21.5t90.5 -52.5l-67 -78q-73 58 -145 58
q-38 0 -59.5 -17t-21.5 -43q0 -20 19 -35t65 -34q71 -30 108 -62.5t37 -85.5q0 -80 -59.5 -129.5t-151.5 -49.5z" />
    <glyph glyph-name="Tcommaaccent" unicode="&#x162;" horiz-adv-x="619" 
d="M100 -272l4 39q75 9 88 68h-55l28 101h118l-23 -86q-17 -62 -55.5 -90.5t-104.5 -31.5zM174 0l158 586h-223l31 114h568l-31 -114h-222l-158 -586h-123z" />
    <glyph glyph-name="tcommaaccent" unicode="&#x163;" horiz-adv-x="409" 
d="M26 -272l4 39q75 9 88 68h-55l28 101h118l-23 -86q-17 -62 -55.5 -90.5t-104.5 -31.5zM196 -9q-63 0 -97.5 28t-34.5 76q0 31 9 61l71 268h-67l28 104h67l39 145h121l-39 -145h141l-28 -104h-141l-68 -255q-4 -20 -4 -30q0 -41 53 -41q37 0 77 17l-28 -105
q-42 -19 -99 -19z" />
    <glyph glyph-name="Tcaron" unicode="&#x164;" horiz-adv-x="619" 
d="M659 893l-156 -135h-115l-84 135h93l62 -57l93 57h107zM174 0l158 586h-223l31 114h568l-31 -114h-222l-158 -586h-123z" />
    <glyph glyph-name="tcaron" unicode="&#x165;" horiz-adv-x="409" 
d="M375 590l55 190h102v-3l-106 -187h-51zM196 -9q-63 0 -97.5 28t-34.5 76q0 31 9 61l71 268h-67l28 104h67l39 145h121l-39 -145h141l-28 -104h-141l-68 -255q-4 -20 -4 -30q0 -41 53 -41q37 0 77 17l-28 -105q-42 -19 -99 -19z" />
    <glyph glyph-name="Umacron" unicode="&#x16a;" horiz-adv-x="762" 
d="M329 768l24 90h359l-24 -90h-359zM345 -11q-122 0 -190.5 62t-68.5 169q0 56 16 111l98 369h123l-103 -386q-10 -38 -10 -77q0 -61 38 -98t109 -37q78 0 131 53t77 147l107 398h123l-112 -417q-36 -134 -109 -207q-87 -87 -229 -87z" />
    <glyph glyph-name="umacron" unicode="&#x16b;" horiz-adv-x="618" 
d="M209 -11q-74 0 -117.5 42.5t-43.5 115.5q0 31 16 93l77 288h121l-79 -293q-7 -28 -7 -53q0 -40 23.5 -61.5t67.5 -21.5q50 0 89.5 36.5t55.5 95.5l80 297h121l-141 -528h-121l18 68q-79 -79 -160 -79zM222 606l24 88h343l-24 -88h-343z" />
    <glyph glyph-name="Ubreve" unicode="&#x16c;" horiz-adv-x="762" 
d="M502 748q-73 0 -110.5 35.5t-26.5 98.5h80q5 -50 75 -50q67 0 99 50h92q-23 -64 -79 -99t-130 -35zM345 -11q-122 0 -190.5 62t-68.5 169q0 56 16 111l98 369h123l-103 -386q-10 -38 -10 -77q0 -61 38 -98t109 -37q78 0 131 53t77 147l107 398h123l-112 -417
q-36 -134 -109 -207q-87 -87 -229 -87z" />
    <glyph glyph-name="ubreve" unicode="&#x16d;" horiz-adv-x="618" 
d="M209 -11q-74 0 -117.5 42.5t-43.5 115.5q0 31 16 93l77 288h121l-79 -293q-7 -28 -7 -53q0 -40 23.5 -61.5t67.5 -21.5q50 0 89.5 36.5t55.5 95.5l80 297h121l-141 -528h-121l18 68q-79 -79 -160 -79zM401 593q-77 0 -114 40.5t-33 104.5h84q1 -27 18.5 -44t51.5 -17
q66 0 105 61h86q-22 -65 -74 -105t-124 -40z" />
    <glyph glyph-name="Uring" unicode="&#x16e;" horiz-adv-x="762" 
d="M345 -11q-122 0 -190.5 62t-68.5 169q0 56 16 111l98 369h123l-103 -386q-10 -38 -10 -77q0 -61 38 -98t109 -37q78 0 131 53t77 147l107 398h123l-112 -417q-36 -134 -109 -207q-87 -87 -229 -87zM513 733q-46 0 -77 27t-31 66q0 50 37 84.5t96 34.5q46 0 76.5 -27
t30.5 -66q0 -50 -36.5 -84.5t-95.5 -34.5zM517 780q31 0 52.5 20.5t21.5 46.5q0 23 -16 37t-41 14q-32 0 -53 -20t-21 -47q0 -23 15.5 -37t41.5 -14z" />
    <glyph glyph-name="uring" unicode="&#x16f;" horiz-adv-x="618" 
d="M405 581q-47 0 -77 28.5t-30 70.5q0 50 37 87.5t89 37.5q48 0 77.5 -28.5t29.5 -70.5q0 -50 -37 -87.5t-89 -37.5zM407 626q31 0 52 23t21 53q0 26 -16 42t-42 16q-30 0 -51 -23.5t-21 -52.5q0 -26 15.5 -42t41.5 -16zM209 -11q-74 0 -117.5 42.5t-43.5 115.5q0 31 16 93
l77 288h121l-79 -293q-7 -28 -7 -53q0 -40 23.5 -61.5t67.5 -21.5q50 0 89.5 36.5t55.5 95.5l80 297h121l-141 -528h-121l18 68q-79 -79 -160 -79z" />
    <glyph glyph-name="Uhungarumlaut" unicode="&#x170;" horiz-adv-x="762" 
d="M345 -11q-122 0 -190.5 62t-68.5 169q0 56 16 111l98 369h123l-103 -386q-10 -38 -10 -77q0 -61 38 -98t109 -37q78 0 131 53t77 147l107 398h123l-112 -417q-36 -134 -109 -207q-87 -87 -229 -87zM342 757l152 145l104 -48l-154 -97h-102zM521 757l152 145l104 -48
l-154 -97h-102z" />
    <glyph glyph-name="uhungarumlaut" unicode="&#x171;" horiz-adv-x="618" 
d="M209 -11q-74 0 -117.5 42.5t-43.5 115.5q0 31 16 93l77 288h121l-79 -293q-7 -28 -7 -53q0 -40 23.5 -61.5t67.5 -21.5q50 0 89.5 36.5t55.5 95.5l80 297h121l-141 -528h-121l18 68q-79 -79 -160 -79zM393 595l150 164l93 -49l-153 -115h-90zM211 595l149 164l93 -49
l-152 -115h-90z" />
    <glyph glyph-name="Uogonek" unicode="&#x172;" horiz-adv-x="762" 
d="M212 -100q0 44 62 96q-90 16 -139 75t-49 149q0 56 16 111l98 369h123l-103 -386q-10 -38 -10 -77q0 -61 38 -98t109 -37q78 0 131 53t77 147l107 398h123l-112 -417q-36 -134 -109 -207q-84 -84 -222 -87q-42 -39 -42 -64q0 -30 61 -31l-15 -58q-20 -3 -37 -3
q-107 3 -107 67z" />
    <glyph glyph-name="uogonek" unicode="&#x173;" horiz-adv-x="618" 
d="M209 -11q-74 0 -117.5 42.5t-43.5 115.5q0 31 16 93l77 288h121l-79 -293q-7 -28 -7 -53q0 -40 23.5 -61.5t67.5 -21.5q50 0 89.5 36.5t55.5 95.5l80 297h121l-141 -528h-16q-55 -48 -55 -75q0 -30 61 -31l-15 -58q-19 -3 -37 -3q-107 3 -107 67q0 46 68 100h-20l18 68
q-79 -79 -160 -79z" />
    <glyph glyph-name="Wcircumflex" unicode="&#x174;" horiz-adv-x="1098" 
d="M191 -5l-55 705h128l29 -519l309 521h104l34 -521l306 519h140l-433 -705h-113l-36 497l-302 -497h-111zM483 758l157 135h114l85 -135h-94l-61 58l-93 -58h-108z" />
    <glyph glyph-name="wcircumflex" unicode="&#x175;" horiz-adv-x="853" 
d="M330 595l155 147h113l77 -147h-90l-59 67l-96 -67h-100zM121 -4l-29 532h123l10 -361l214 363h103l20 -363l206 361h122l-316 -532h-109l-21 361l-216 -361h-107z" />
    <glyph glyph-name="Ycircumflex" unicode="&#x176;" horiz-adv-x="655" 
d="M189 0l74 278l-156 422h136l106 -316l277 316h152l-395 -435l-71 -265h-123zM259 757l157 135h114l85 -135h-94l-61 58l-93 -58h-108z" />
    <glyph glyph-name="ycircumflex" unicode="&#x177;" horiz-adv-x="585" 
d="M65 -163q-67 0 -119 36l64 89q32 -23 68 -23q46 0 90 59l-77 530h124l44 -391l233 391h132l-341 -543q-53 -81 -103 -114.5t-115 -33.5zM187 595l155 147h113l77 -147h-90l-59 67l-96 -67h-100z" />
    <glyph glyph-name="Ydieresis" unicode="&#x178;" horiz-adv-x="655" 
d="M189 0l74 278l-156 422h136l106 -316l277 316h152l-395 -435l-71 -265h-123zM485 757l31 112h124l-31 -112h-124zM280 757l31 112h124l-31 -112h-124z" />
    <glyph glyph-name="Zacute" unicode="&#x179;" horiz-adv-x="681" 
d="M-19 0l24 91l535 500h-387l30 109h557l-25 -91l-535 -500h404l-29 -109h-574zM401 758l152 145l107 -48l-153 -97h-106z" />
    <glyph glyph-name="zacute" unicode="&#x17a;" horiz-adv-x="554" 
d="M296 595l150 164l108 -49l-153 -115h-105zM-24 0l23 83l388 346h-285l26 99h445l-22 -83l-389 -346h299l-27 -99h-458z" />
    <glyph glyph-name="Zdotaccent" unicode="&#x17b;" horiz-adv-x="681" 
d="M393 758l31 112h128l-31 -112h-128zM-19 0l24 91l535 500h-387l30 109h557l-25 -91l-535 -500h404l-29 -109h-574z" />
    <glyph glyph-name="zdotaccent" unicode="&#x17c;" horiz-adv-x="554" 
d="M-24 0l23 83l388 346h-285l26 99h445l-22 -83l-389 -346h299l-27 -99h-458zM286 594l33 120h125l-33 -120h-125z" />
    <glyph glyph-name="Zcaron" unicode="&#x17d;" horiz-adv-x="681" 
d="M678 893l-156 -135h-115l-84 135h93l62 -57l93 57h107zM-19 0l24 91l535 500h-387l30 109h557l-25 -91l-535 -500h404l-29 -109h-574z" />
    <glyph glyph-name="zcaron" unicode="&#x17e;" horiz-adv-x="554" 
d="M541 742l-155 -147h-113l-77 147h90l58 -67l97 67h100zM-24 0l23 83l388 346h-285l26 99h445l-22 -83l-389 -346h299l-27 -99h-458z" />
    <glyph glyph-name="florin" unicode="&#x192;" horiz-adv-x="538" 
d="M53 -9q-40 0 -80 8l27 99q24 -7 47 -7q52 0 86 76l83 189h-82l27 101h100l45 100q65 152 196 152q66 0 110 -18l-28 -100q-34 16 -75 16q-62 0 -100 -84l-29 -66h132l-27 -101h-150l-99 -225q-62 -140 -183 -140z" />
    <glyph glyph-name="Aringacute" unicode="&#x1fa;" horiz-adv-x="763" 
d="M-50 0l472 670q-25 27 -25 62q0 50 37 84.5t96 34.5q46 0 76.5 -27t30.5 -66q0 -69 -63 -103l110 -655h-126l-27 169h-331l-116 -169h-134zM275 278h241l-45 283zM492 879l152 129l106 -49l-152 -80h-106zM509 686q31 0 52.5 20.5t21.5 46.5q0 23 -16 37t-41 14
q-32 0 -53 -20t-21 -47q0 -23 15.5 -37t41.5 -14z" />
    <glyph glyph-name="aringacute" unicode="&#x1fb;" horiz-adv-x="583" 
d="M388 849l147 138l105 -49l-151 -89h-101zM174 -11q-69 0 -115 40t-46 105q0 89 65 139.5t170 50.5q82 0 158 -26l3 11q6 24 6 42q0 78 -115 78q-73 0 -145 -29l-20 100q88 36 189 36q103 0 157.5 -43t54.5 -121q0 -34 -11 -75l-79 -297h-119l18 69q-75 -80 -171 -80z
M221 78q55 0 101 37t59 87l6 23q-66 20 -120 20q-60 0 -95 -26.5t-35 -68.5q0 -34 22.5 -53t61.5 -19zM390 593q-47 0 -77 28.5t-30 70.5q0 50 37 87.5t89 37.5q48 0 77.5 -28.5t29.5 -70.5q0 -50 -37 -87.5t-89 -37.5zM392 638q31 0 52 23t21 53q0 26 -16 42t-42 16
q-30 0 -51 -23.5t-21 -52.5q0 -26 15.5 -42t41.5 -16z" />
    <glyph glyph-name="AEacute" unicode="&#x1fc;" horiz-adv-x="1061" 
d="M678 758l152 145l107 -48l-153 -97h-106zM-52 0l579 700h590l-30 -110h-374l-49 -183h330l-30 -109h-330l-50 -188h380l-30 -110h-502l46 169h-256l-139 -169h-135zM311 278h196l84 315h-21z" />
    <glyph glyph-name="aeacute" unicode="&#x1fd;" horiz-adv-x="948" 
d="M487 595l150 164l108 -49l-153 -115h-105zM431 92q-112 -103 -233 -103q-85 0 -135 41t-50 111q0 86 65 134.5t170 48.5q82 0 158 -26l3 11q6 24 6 42q0 78 -115 78q-73 0 -145 -29l-20 100q88 36 189 36q145 0 183 -90q85 93 200 93q96 0 151.5 -58t55.5 -147
q0 -57 -23 -112h-384q0 -62 35.5 -98.5t101.5 -36.5q67 0 136 51l57 -77q-84 -73 -204 -73q-144 0 -202 104zM520 302h275q4 18 4 37q0 44 -26 72.5t-79 28.5q-59 0 -106 -38.5t-68 -99.5zM400 221q-68 24 -133 24q-60 0 -95 -26.5t-35 -68.5q0 -34 24.5 -53t68.5 -19
q41 0 90.5 24.5t84.5 61.5q-5 30 -5 57z" />
    <glyph glyph-name="Oslashacute" unicode="&#x1fe;" horiz-adv-x="836" 
d="M390 -12q-126 0 -212 75l-78 -68h-123l146 130q-47 74 -47 170q0 106 52.5 201.5t149 155.5t213.5 60q130 0 216 -78l80 71h123l-149 -134q45 -73 45 -166q0 -106 -52.5 -201.5t-149.5 -155.5t-214 -60zM219 206l396 350q-53 47 -136 47q-118 0 -198.5 -93.5
t-80.5 -208.5q0 -54 19 -95zM402 96q79 0 144.5 45.5t100.5 114.5t35 142q0 52 -18 92l-393 -349q51 -45 131 -45zM482 768l152 145l107 -48l-153 -97h-106z" />
    <glyph glyph-name="oslashacute" unicode="&#x1ff;" horiz-adv-x="646" 
d="M293 -12q-101 0 -169 58l-58 -51h-114l124 109q-31 56 -31 125q0 122 91 216t217 94q99 0 165 -56l58 51h113l-121 -107q33 -56 33 -130q0 -122 -91.5 -215.5t-216.5 -93.5zM169 181l265 231q-35 26 -85 26q-78 0 -133 -65t-55 -140q0 -28 8 -52zM297 89q78 0 133 64.5
t55 140.5q0 33 -9 57l-267 -234q34 -28 88 -28zM349 595l150 164l108 -49l-153 -115h-105z" />
    <glyph glyph-name="Scommaaccent" unicode="&#x218;" horiz-adv-x="637" 
d="M109 -275l4 39q75 9 88 68h-55l28 101h118l-23 -86q-17 -62 -55.5 -90.5t-104.5 -31.5zM296 -10q-198 0 -297 131l93 77q87 -99 211 -99q59 0 97 27t38 70q0 32 -27.5 54.5t-101.5 51.5q-90 36 -135 78t-45 110q0 97 77 158.5t192 61.5q162 0 257 -105l-86 -84
q-82 80 -180 80q-59 0 -94.5 -27.5t-35.5 -64.5q0 -33 28.5 -54.5t107.5 -52.5q87 -34 130.5 -76.5t43.5 -111.5q0 -100 -79.5 -162t-193.5 -62z" />
    <glyph glyph-name="scommaaccent" unicode="&#x219;" horiz-adv-x="499" 
d="M39 -272l4 39q75 9 88 68h-55l28 101h118l-23 -86q-17 -62 -55.5 -90.5t-104.5 -31.5zM217 -12q-63 0 -126 24.5t-107 70.5l72 74q74 -74 170 -74q37 0 61 17t24 46q0 19 -18 34t-59 32q-78 32 -115 63.5t-37 87.5q0 76 56.5 125.5t150.5 49.5q58 0 112.5 -21.5
t90.5 -52.5l-67 -78q-73 58 -145 58q-38 0 -59.5 -17t-21.5 -43q0 -20 19 -35t65 -34q71 -30 108 -62.5t37 -85.5q0 -80 -59.5 -129.5t-151.5 -49.5z" />
    <glyph glyph-name="schwa" unicode="&#x259;" horiz-adv-x="600" 
d="M440 308q-1 61 -36.5 97t-100.5 36q-67 0 -135 -51l-58 77q89 73 205 73q110 0 175 -62.5t65 -168.5q0 -79 -38.5 -152t-111.5 -120.5t-161 -47.5q-98 0 -154.5 58t-56.5 147q0 52 23 114h384zM427 225h-274q-5 -13 -5 -36q0 -44 26.5 -72.5t78.5 -28.5q60 0 106.5 38
t67.5 99z" />
    <glyph glyph-name="circumflex" unicode="&#x2c6;" 
d="M167 595l155 147h113l77 -147h-90l-59 67l-96 -67h-100z" />
    <glyph glyph-name="caron" unicode="&#x2c7;" 
d="M548 742l-155 -147h-113l-77 147h90l58 -67l97 67h100z" />
    <glyph glyph-name="breve" unicode="&#x2d8;" 
d="M350 593q-77 0 -114 40.5t-33 104.5h84q1 -27 18.5 -44t51.5 -17q66 0 105 61h86q-22 -65 -74 -105t-124 -40z" />
    <glyph glyph-name="dotaccent" unicode="&#x2d9;" 
d="M277 594l33 120h125l-33 -120h-125z" />
    <glyph glyph-name="ring" unicode="&#x2da;" 
d="M359 593q-47 0 -77 28.5t-30 70.5q0 50 37 87.5t89 37.5q48 0 77.5 -28.5t29.5 -70.5q0 -50 -37 -87.5t-89 -37.5zM361 638q31 0 52 23t21 53q0 26 -16 42t-42 16q-30 0 -51 -23.5t-21 -52.5q0 -26 15.5 -42t41.5 -16z" />
    <glyph glyph-name="ogonek" unicode="&#x2db;" 
d="M89 -100q0 49 84 112l77 -5q-63 -54 -63 -82q0 -30 61 -31l-15 -58q-20 -3 -37 -3q-107 3 -107 67z" />
    <glyph glyph-name="tilde" unicode="&#x2dc;" 
d="M223 585l-67 22q28 64 57 93.5t73 29.5q29 0 74.5 -20t61.5 -20q21 0 34 11t30 39l67 -22q-29 -64 -58 -93.5t-72 -29.5q-30 0 -75.5 20t-60.5 20q-21 0 -34.5 -11.5t-29.5 -38.5z" />
    <glyph glyph-name="hungarumlaut" unicode="&#x2dd;" 
d="M326 595l150 164l93 -49l-153 -115h-90zM144 595l149 164l93 -49l-152 -115h-90z" />
    <glyph glyph-name="commaaccent" unicode="&#x326;" 
d="M41 -272l4 39q75 9 88 68h-55l28 101h118l-23 -86q-17 -62 -55.5 -90.5t-104.5 -31.5z" />
    <glyph glyph-name="Wgrave" unicode="&#x1e80;" horiz-adv-x="1098" 
d="M628 903l73 -145h-84l-101 97zM191 -5l-55 705h128l29 -519l309 521h104l34 -521l306 519h140l-433 -705h-113l-36 497l-302 -497h-111z" />
    <glyph glyph-name="wgrave" unicode="&#x1e81;" horiz-adv-x="853" 
d="M121 -4l-29 532h123l10 -361l214 363h103l20 -363l206 361h122l-316 -532h-109l-21 361l-216 -361h-107zM457 595l-91 115l113 49l61 -164h-83z" />
    <glyph glyph-name="Wacute" unicode="&#x1e82;" horiz-adv-x="1098" 
d="M614 758l152 145l107 -48l-153 -97h-106zM191 -5l-55 705h128l29 -519l309 521h104l34 -521l306 519h140l-433 -705h-113l-36 497l-302 -497h-111z" />
    <glyph glyph-name="wacute" unicode="&#x1e83;" horiz-adv-x="853" 
d="M454 595l150 164l108 -49l-153 -115h-105zM121 -4l-29 532h123l10 -361l214 363h103l20 -363l206 361h122l-316 -532h-109l-21 361l-216 -361h-107z" />
    <glyph glyph-name="Wdieresis" unicode="&#x1e84;" horiz-adv-x="1098" 
d="M710 758l31 112h124l-31 -112h-124zM505 758l31 112h124l-31 -112h-124zM191 -5l-55 705h128l29 -519l309 521h104l34 -521l306 519h140l-433 -705h-113l-36 497l-302 -497h-111z" />
    <glyph glyph-name="wdieresis" unicode="&#x1e85;" horiz-adv-x="853" 
d="M546 595l32 119h123l-33 -119h-122zM347 595l32 119h123l-32 -119h-123zM121 -4l-29 532h123l10 -361l214 363h103l20 -363l206 361h122l-316 -532h-109l-21 361l-216 -361h-107z" />
    <glyph glyph-name="Ygrave" unicode="&#x1ef2;" horiz-adv-x="655" 
d="M189 0l74 278l-156 422h136l106 -316l277 316h152l-395 -435l-71 -265h-123zM403 902l73 -145h-84l-101 97z" />
    <glyph glyph-name="ygrave" unicode="&#x1ef3;" horiz-adv-x="585" 
d="M65 -163q-67 0 -119 36l64 89q32 -23 68 -23q46 0 90 59l-77 530h124l44 -391l233 391h132l-341 -543q-53 -81 -103 -114.5t-115 -33.5zM317 595l-91 115l113 49l61 -164h-83z" />
    <glyph glyph-name="enspace" unicode="&#x2002;" 
 />
    <glyph glyph-name="emspace" unicode="&#x2003;" horiz-adv-x="1000" 
 />
    <glyph glyph-name="threeperemspace" unicode="&#x2004;" horiz-adv-x="333" 
 />
    <glyph glyph-name="fourperemspace" unicode="&#x2005;" horiz-adv-x="250" 
 />
    <glyph glyph-name="thinspace" unicode="&#x2009;" horiz-adv-x="133" 
 />
    <glyph glyph-name="hairspace" unicode="&#x200a;" horiz-adv-x="75" 
 />
    <glyph glyph-name="endash" unicode="&#x2013;" horiz-adv-x="530" 
d="M53 249l31 115h416l-31 -115h-416z" />
    <glyph glyph-name="emdash" unicode="&#x2014;" horiz-adv-x="900" 
d="M53 249l31 115h786l-31 -115h-786z" />
    <glyph glyph-name="quoteleft" unicode="&#x2018;" horiz-adv-x="293" 
d="M109 423l31 116q23 84 69 122.5t125 43.5l9 -51q-101 -14 -115 -94h51l-37 -137h-133z" />
    <glyph glyph-name="quoteright" unicode="&#x2019;" horiz-adv-x="293" 
d="M102 417l-9 52q101 14 115 94h-51l37 137h133l-31 -117q-23 -83 -69 -121.5t-125 -44.5z" />
    <glyph glyph-name="quotesinglbase" unicode="&#x201a;" horiz-adv-x="293" 
d="M-45 -145l-9 51q99 14 115 94h-52l37 137h133l-31 -116q-22 -84 -68 -122t-125 -44z" />
    <glyph glyph-name="quotedblleft" unicode="&#x201c;" horiz-adv-x="524" 
d="M341 422l32 117q22 83 68 121.5t125 44.5l9 -52q-101 -14 -115 -93h52l-37 -138h-134zM110 422l31 117q22 83 68 121.5t125 44.5l9 -52q-101 -14 -115 -93h52l-37 -138h-133z" />
    <glyph glyph-name="quotedblright" unicode="&#x201d;" horiz-adv-x="524" 
d="M331 417l-9 52q101 14 115 94h-51l37 137h133l-31 -117q-23 -83 -69 -121.5t-125 -44.5zM100 417l-9 52q100 14 115 94h-52l37 137h133l-31 -117q-22 -83 -68 -121.5t-125 -44.5z" />
    <glyph glyph-name="quotedblbase" unicode="&#x201e;" horiz-adv-x="525" 
d="M187 -145l-9 51q101 14 115 94h-52l37 137h133l-31 -116q-22 -84 -68 -122t-125 -44zM-45 -145l-9 51q99 14 115 94h-52l37 137h133l-31 -116q-22 -84 -68 -122t-125 -44z" />
    <glyph glyph-name="dagger" unicode="&#x2020;" horiz-adv-x="411" 
d="M157 238l82 275l-124 -9l20 71l117 -9l26 134h79l-48 -134l124 9l-20 -71l-119 9l-65 -275h-72z" />
    <glyph glyph-name="daggerdbl" unicode="&#x2021;" horiz-adv-x="417" 
d="M93 0l47 134l-123 -9l19 71l118 -9l36 163l51 163l-123 -9l20 71l118 -9l25 134h79l-48 -134l124 9l-20 -71l-118 9l-36 -163l-52 -163l124 9l-19 -71l-118 9l-25 -134h-79z" />
    <glyph glyph-name="bullet" unicode="&#x2022;" horiz-adv-x="491" 
d="M242 207q-52 0 -82.5 30.5t-30.5 83.5q0 69 46.5 123.5t114.5 54.5q52 0 82 -31t30 -83q0 -69 -46.5 -123.5t-113.5 -54.5z" />
    <glyph glyph-name="ellipsis" unicode="&#x2026;" horiz-adv-x="815" 
d="M535 0l37 135h130l-36 -135h-131zM272 0l36 135h131l-36 -135h-131zM9 0l36 135h131l-37 -135h-130z" />
    <glyph glyph-name="perthousand" unicode="&#x2030;" horiz-adv-x="1262" 
d="M236 346q-67 0 -108 42t-41 109q0 82 55.5 146.5t137.5 64.5q66 0 107.5 -42.5t41.5 -108.5q0 -82 -55.5 -146.5t-137.5 -64.5zM62 0l675 700h109l-676 -700h-108zM1028 -8q-66 0 -107.5 42.5t-41.5 108.5q0 83 55.5 147t137.5 64q67 0 108 -42t41 -108
q0 -83 -55.5 -147.5t-137.5 -64.5zM628 -8q-67 0 -108 42.5t-41 108.5q0 83 55.5 147t137.5 64q66 0 107.5 -42t41.5 -108q0 -83 -55.5 -147.5t-137.5 -64.5zM241 420q44 0 74 41.5t30 91.5q0 38 -18.5 59.5t-52.5 21.5q-44 0 -74 -42t-30 -91q0 -38 19 -59.5t52 -21.5z
M1033 66q44 0 74.5 42t30.5 91q0 38 -19 60t-52 22q-44 0 -74.5 -42t-30.5 -92q0 -37 19 -59t52 -22zM633 66q44 0 74.5 42t30.5 91q0 38 -19 60t-52 22q-44 0 -74.5 -42t-30.5 -92q0 -37 19 -59t52 -22z" />
    <glyph glyph-name="guilsinglleft" unicode="&#x2039;" horiz-adv-x="354" 
d="M152 34l-106 220l2 8l230 226l72 -65l-181 -177l81 -167z" />
    <glyph glyph-name="guilsinglright" unicode="&#x203a;" horiz-adv-x="354" 
d="M74 34l-71 64l180 178l-80 167l97 44l107 -219l-2 -8z" />
    <glyph glyph-name="fraction" unicode="&#x2044;" horiz-adv-x="529" 
d="M-121 -98l695 856h112l-696 -856h-111z" />
    <glyph glyph-name="Euro" unicode="&#x20ac;" horiz-adv-x="709" 
d="M389 -12q-110 0 -181.5 64t-81.5 173h-98l23 85h76q5 47 16 85h-70l23 85h73q45 105 130 168.5t196 63.5q186 0 243 -162l-105 -51q-24 52 -57 77t-89 25q-117 0 -181 -121h225l-23 -85h-234q-14 -38 -19 -85h231l-23 -85h-209q8 -59 44.5 -92.5t92.5 -33.5q48 0 84.5 19
t74.5 60l83 -72q-99 -118 -244 -118z" />
    <glyph glyph-name="published" unicode="&#x2117;" horiz-adv-x="830" 
d="M436 -12q-151 0 -256 106t-105 255t106 256t257 107t256 -106t105 -255t-106 -256t-257 -107zM436 24q138 0 231.5 95.5t93.5 231.5t-93 230.5t-230 94.5q-138 0 -231 -95.5t-93 -231.5t92.5 -230.5t229.5 -94.5zM308 167v380h153q68 0 107.5 -35t39.5 -94
q0 -62 -44 -96.5t-110 -34.5h-72v-120h-74zM382 352h73q36 0 57 17.5t21 47.5q0 31 -20.5 47.5t-57.5 16.5h-73v-129z" />
    <glyph glyph-name="servicemark" unicode="&#x2120;" horiz-adv-x="705" 
d="M202 386q-83 0 -132 58l41 35q42 -45 96 -45q27 0 43.5 12t16.5 32q0 14 -11.5 24t-46.5 23q-44 18 -62.5 36.5t-18.5 46.5q0 43 34 70.5t87 27.5q71 0 113 -47l-37 -38q-35 37 -82 37q-26 0 -42 -12t-16 -29q0 -15 12.5 -25t49.5 -24q40 -16 58 -34t18 -47
q0 -46 -34.5 -73.5t-86.5 -27.5zM371 392l85 308h59l53 -146l132 146h66l-85 -308h-57l61 219l-135 -148h-6l-55 148l-61 -219h-57z" />
    <glyph glyph-name="trademark" unicode="&#x2122;" horiz-adv-x="697" 
d="M363 392l85 308h59l53 -146l132 146h66l-85 -308h-57l61 219l-135 -148h-6l-55 148l-61 -219h-57zM143 392l69 254h-94l15 54h248l-14 -54h-95l-70 -254h-59z" />
    <glyph glyph-name="minus" unicode="&#x2212;" horiz-adv-x="634" 
d="M575 296h-498l30 113h498z" />
    <glyph glyph-name="Q.alt" horiz-adv-x="836" 
d="M640 -38l-54 77q-91 -51 -196 -51q-139 0 -226.5 87.5t-87.5 219.5q0 106 52.5 201.5t149 155.5t213.5 60q139 0 227 -87.5t88 -219.5q0 -83 -33.5 -161t-93.5 -137l61 -77zM403 101q63 0 119 32l-99 124l101 69l84 -120q70 86 70 192q0 88 -53.5 144.5t-145.5 56.5
q-78 0 -142.5 -44.5t-98.5 -112.5t-34 -140q0 -89 53.5 -145t145.5 -56z" />
    <glyph glyph-name="a.alt" horiz-adv-x="668" 
d="M250 -11q-90 0 -148 61.5t-58 164.5q0 137 88.5 230.5t205.5 93.5q121 0 178 -105l25 94h121l-141 -528h-121l19 70q-81 -81 -169 -81zM296 92q73 0 131.5 63.5t58.5 146.5q0 58 -37.5 95.5t-96.5 37.5q-74 0 -128 -62t-54 -150q0 -60 34.5 -95.5t91.5 -35.5z" />
    <glyph glyph-name="aacute.alt" horiz-adv-x="668" 
d="M366 595l150 164l108 -49l-153 -115h-105zM250 -11q-90 0 -148 61.5t-58 164.5q0 137 88.5 230.5t205.5 93.5q121 0 178 -105l25 94h121l-141 -528h-121l19 70q-81 -81 -169 -81zM296 92q73 0 131.5 63.5t58.5 146.5q0 58 -37.5 95.5t-96.5 37.5q-74 0 -128 -62t-54 -150
q0 -60 34.5 -95.5t91.5 -35.5z" />
    <glyph glyph-name="abreve.alt" horiz-adv-x="668" 
d="M250 -11q-90 0 -148 61.5t-58 164.5q0 137 88.5 230.5t205.5 93.5q121 0 178 -105l25 94h121l-141 -528h-121l19 70q-81 -81 -169 -81zM296 92q73 0 131.5 63.5t58.5 146.5q0 58 -37.5 95.5t-96.5 37.5q-74 0 -128 -62t-54 -150q0 -60 34.5 -95.5t91.5 -35.5zM428 593
q-77 0 -114 40.5t-33 104.5h84q1 -27 18.5 -44t51.5 -17q66 0 105 61h86q-22 -65 -74 -105t-124 -40z" />
    <glyph glyph-name="acircumflex.alt" horiz-adv-x="668" 
d="M241 595l155 147h113l77 -147h-90l-59 67l-96 -67h-100zM250 -11q-90 0 -148 61.5t-58 164.5q0 137 88.5 230.5t205.5 93.5q121 0 178 -105l25 94h121l-141 -528h-121l19 70q-81 -81 -169 -81zM296 92q73 0 131.5 63.5t58.5 146.5q0 58 -37.5 95.5t-96.5 37.5
q-74 0 -128 -62t-54 -150q0 -60 34.5 -95.5t91.5 -35.5z" />
    <glyph glyph-name="adieresis.alt" horiz-adv-x="668" 
d="M457 595l32 119h123l-33 -119h-122zM258 595l32 119h123l-32 -119h-123zM250 -11q-90 0 -148 61.5t-58 164.5q0 137 88.5 230.5t205.5 93.5q121 0 178 -105l25 94h121l-141 -528h-121l19 70q-81 -81 -169 -81zM296 92q73 0 131.5 63.5t58.5 146.5q0 58 -37.5 95.5
t-96.5 37.5q-74 0 -128 -62t-54 -150q0 -60 34.5 -95.5t91.5 -35.5z" />
    <glyph glyph-name="agrave.alt" horiz-adv-x="668" 
d="M250 -11q-90 0 -148 61.5t-58 164.5q0 137 88.5 230.5t205.5 93.5q121 0 178 -105l25 94h121l-141 -528h-121l19 70q-81 -81 -169 -81zM296 92q73 0 131.5 63.5t58.5 146.5q0 58 -37.5 95.5t-96.5 37.5q-74 0 -128 -62t-54 -150q0 -60 34.5 -95.5t91.5 -35.5zM368 595
l-91 115l113 49l61 -164h-83z" />
    <glyph glyph-name="amacron.alt" horiz-adv-x="668" 
d="M250 -11q-90 0 -148 61.5t-58 164.5q0 137 88.5 230.5t205.5 93.5q121 0 178 -105l25 94h121l-141 -528h-121l19 70q-81 -81 -169 -81zM296 92q73 0 131.5 63.5t58.5 146.5q0 58 -37.5 95.5t-96.5 37.5q-74 0 -128 -62t-54 -150q0 -60 34.5 -95.5t91.5 -35.5zM250 606
l24 88h343l-24 -88h-343z" />
    <glyph glyph-name="aogonek.alt" horiz-adv-x="668" 
d="M352 -100q0 46 68 100h-20l19 70q-81 -81 -169 -81q-90 0 -148 61.5t-58 164.5q0 137 88.5 230.5t205.5 93.5q121 0 178 -105l25 94h121l-141 -528h-16q-55 -48 -55 -75q0 -30 61 -31l-15 -58q-19 -3 -37 -3q-107 3 -107 67zM296 92q73 0 131.5 63.5t58.5 146.5
q0 58 -37.5 95.5t-96.5 37.5q-74 0 -128 -62t-54 -150q0 -60 34.5 -95.5t91.5 -35.5z" />
    <glyph glyph-name="aring.alt" horiz-adv-x="668" 
d="M438 593q-47 0 -77 28.5t-30 70.5q0 50 37 87.5t89 37.5q48 0 77.5 -28.5t29.5 -70.5q0 -50 -37 -87.5t-89 -37.5zM440 638q31 0 52 23t21 53q0 26 -16 42t-42 16q-30 0 -51 -23.5t-21 -52.5q0 -26 15.5 -42t41.5 -16zM250 -11q-90 0 -148 61.5t-58 164.5
q0 137 88.5 230.5t205.5 93.5q121 0 178 -105l25 94h121l-141 -528h-121l19 70q-81 -81 -169 -81zM296 92q73 0 131.5 63.5t58.5 146.5q0 58 -37.5 95.5t-96.5 37.5q-74 0 -128 -62t-54 -150q0 -60 34.5 -95.5t91.5 -35.5z" />
    <glyph glyph-name="aring.alt2" horiz-adv-x="583" 
d="M437 517q99 -39 99 -145q0 -34 -11 -75l-79 -297h-119l18 69q-75 -80 -171 -80q-69 0 -115 40t-46 105q0 89 65 139.5t170 50.5q82 0 158 -26l3 11q6 24 6 42q0 78 -115 78q-73 0 -145 -29l-20 100q66 27 143 34q-19 23 -19 58q0 48 37 85t89 37q47 0 77 -28.5t30 -70.5
q0 -61 -55 -98zM368 535q30 0 51 23t21 53q0 26 -15.5 41.5t-41.5 15.5q-31 0 -52 -23t-21 -52q0 -26 16 -42t42 -16zM221 78q55 0 101 37t59 87l6 23q-66 20 -120 20q-60 0 -95 -26.5t-35 -68.5q0 -34 22.5 -53t61.5 -19z" />
    <glyph glyph-name="aringacute.alt" horiz-adv-x="668" 
d="M436 849l148 138l105 -49l-151 -89h-102zM438 593q-47 0 -77 28.5t-30 70.5q0 50 37 87.5t89 37.5q48 0 77.5 -28.5t29.5 -70.5q0 -50 -37 -87.5t-89 -37.5zM440 638q31 0 52 23t21 53q0 26 -16 42t-42 16q-30 0 -51 -23.5t-21 -52.5q0 -26 15.5 -42t41.5 -16zM250 -11
q-90 0 -148 61.5t-58 164.5q0 137 88.5 230.5t205.5 93.5q121 0 178 -105l25 94h121l-141 -528h-121l19 70q-81 -81 -169 -81zM296 92q73 0 131.5 63.5t58.5 146.5q0 58 -37.5 95.5t-96.5 37.5q-74 0 -128 -62t-54 -150q0 -60 34.5 -95.5t91.5 -35.5z" />
    <glyph glyph-name="aringacute.alt2" horiz-adv-x="583" 
d="M364 749l148 139l104 -49l-151 -90h-101zM437 517q99 -39 99 -145q0 -34 -11 -75l-79 -297h-119l18 69q-75 -80 -171 -80q-69 0 -115 40t-46 105q0 89 65 139.5t170 50.5q82 0 158 -26l3 11q6 24 6 42q0 78 -115 78q-73 0 -145 -29l-20 100q66 27 143 34q-19 23 -19 58
q0 48 37 85t89 37q47 0 77 -28.5t30 -70.5q0 -61 -55 -98zM368 535q30 0 51 23t21 53q0 26 -15.5 41.5t-41.5 15.5q-31 0 -52 -23t-21 -52q0 -26 16 -42t42 -16zM221 78q55 0 101 37t59 87l6 23q-66 20 -120 20q-60 0 -95 -26.5t-35 -68.5q0 -34 22.5 -53t61.5 -19z" />
    <glyph glyph-name="atilde.alt" horiz-adv-x="668" 
d="M250 -11q-90 0 -148 61.5t-58 164.5q0 137 88.5 230.5t205.5 93.5q121 0 178 -105l25 94h121l-141 -528h-121l19 70q-81 -81 -169 -81zM296 92q73 0 131.5 63.5t58.5 146.5q0 58 -37.5 95.5t-96.5 37.5q-74 0 -128 -62t-54 -150q0 -60 34.5 -95.5t91.5 -35.5zM302 585
l-67 22q28 64 57 93.5t73 29.5q29 0 74.5 -20t61.5 -20q21 0 34 11t30 39l67 -22q-29 -64 -58 -93.5t-72 -29.5q-30 0 -75.5 20t-60.5 20q-21 0 -34.5 -11.5t-29.5 -38.5z" />
    <glyph glyph-name="three.alt" horiz-adv-x="615" 
d="M257 -12q-97 0 -163 37t-101 95l93 68q69 -89 180 -89q68 0 108.5 32.5t40.5 77.5q0 93 -144 93h-62l28 103h68q77 0 124.5 29t47.5 80q0 39 -32 63t-81 24q-83 0 -165 -71l-69 78q105 103 246 103q102 0 165 -50.5t63 -128.5q0 -138 -172 -182q46 -16 77 -53.5t31 -90.5
q0 -93 -79 -155.5t-204 -62.5z" />
    <glyph glyph-name="registered.alt" horiz-adv-x="830" 
d="M436 -12q-151 0 -256 105.5t-105 254.5v2q0 149 106 255.5t257 106.5t256 -105.5t105 -254.5v-2q0 -149 -106 -255.5t-257 -106.5zM436 24q138 0 231.5 95.5t93.5 230.5v2q0 135 -93 229.5t-230 94.5q-138 0 -231 -95.5t-93 -230.5v-2q0 -135 92.5 -229.5t229.5 -94.5z
M291 171v379h169q74 0 116 -40q30 -32 30 -80v-2q0 -44 -23.5 -73t-64.5 -41l103 -143h-86l-93 131h-78v-131h-73zM364 365h93q35 0 55.5 16t20.5 43v2q0 28 -20 43.5t-56 15.5h-93v-120z" />
    <glyph glyph-name="NUL" horiz-adv-x="0" 
 />
    <glyph glyph-name="hfjslug" horiz-adv-x="694" 
d="M644 -200h-208l-8 14h-163l-8 -14h-207v303q14 0 23 9.5t9 22.5t-9.5 22.5t-22.5 9.5v554h100l30 79h334l29 -79h101v-921zM400 563v-172h15v78h38v14h-38v66h43v14h-58zM184 563v-172h15v79h47v-79h15v172h-15v-79h-47v79h-15zM460 394q10 -4 21 -4q31 0 31 36v137h-16
v-137q0 -22 -16 -22q-8 0 -20 5v-15zM371 465l-13 3q-4 -18 -8 -30h-1l-16 31q23 21 23 42q0 31 -27 31q-12 0 -20 -9t-8 -22t14 -39q-23 -18 -23 -47q0 -16 8 -26.5t21 -10.5q19 0 29 24h1l12 -24l12 6l-17 32q6 14 13 39zM523 323v-46h8v12l8 8l15 -20h10l-20 26l18 20
h-10l-20 -24h-1v24h-8zM488 292l10 -15h9l-12 17q10 4 10 14q0 15 -17 15h-20v-46h8v15h12zM426 276q10 0 17 7t7 17q0 9 -7 16.5t-17 7.5t-17 -7.5t-7 -16.5q0 -10 7 -17t17 -7zM370 301l-13 22h-9l18 -29v-17h8v17l18 29h-9zM193 323v-46h34v7h-26v13h23v7h-23v12h26v7
h-34zM132 323v-46h8v32l25 -32h7v46h-8v-32l-25 32h-7zM241 323l14 -47h8l11 34h1l11 -34h8l14 47h-8l-10 -35h-1l-11 35h-7l-11 -35h-1l-10 35h-8zM327 479q-12 22 -12 32q0 19 14 19q13 0 13 -19q0 -15 -15 -32zM342 423q-8 -21 -20 -21q-16 0 -16 25q0 19 16 35zM487 299
h-11v17h11q10 0 10 -8q0 -9 -10 -9zM426 283q-16 0 -16 17q0 6 4.5 11.5t11.5 5.5t11.5 -5.5t4.5 -11.5q0 -17 -16 -17z" />
    <glyph glyph-name="i.dot" horiz-adv-x="286" 
d="M171 609l31 115h131l-32 -115h-130zM12 0l142 528h121l-142 -528h-121z" />
    <glyph glyph-name="caron.alt" 
d="M281 540l55 190h102v-3l-106 -187h-51z" />
    <glyph glyph-name="acute.cap" 
d="M285 758l152 145l107 -48l-153 -97h-106z" />
    <glyph glyph-name="hungarumlaut.cap" 
d="M184 758l152 145l104 -48l-154 -97h-102zM363 758l152 145l104 -48l-154 -97h-102z" />
    <glyph glyph-name="grave.cap" 
d="M398 903l73 -145h-84l-101 97z" />
    <glyph glyph-name="circumflex.cap" 
d="M206 758l157 135h114l85 -135h-94l-61 58l-93 -58h-108z" />
    <glyph glyph-name="caron.cap" 
d="M598 893l-156 -135h-115l-84 135h93l62 -57l93 57h107z" />
    <glyph glyph-name="breve.cap" 
d="M384 756q-73 0 -110.5 35.5t-26.5 98.5h80q5 -50 75 -50q67 0 99 50h92q-23 -64 -79 -99t-130 -35z" />
    <glyph glyph-name="tilde.cap" 
d="M263 748l-67 23q28 63 57 92t72 29q30 0 78 -19.5t63 -19.5q20 0 34 11t30 37l67 -22q-28 -63 -57 -92t-72 -29q-30 0 -78 19.5t-63 19.5q-20 0 -34 -11.5t-30 -37.5z" />
    <glyph glyph-name="macron.cap" 
d="M208 769l24 90h359l-24 -90h-359z" />
    <glyph glyph-name="dieresis.cap" 
d="M425 758l31 112h124l-31 -112h-124zM220 758l31 112h124l-31 -112h-124z" />
    <glyph glyph-name="dotaccent.cap" 
d="M320 758l31 112h128l-31 -112h-128z" />
    <glyph glyph-name="ring.cap" 
d="M286 755q-46 0 -77 27t-31 66q0 50 37 84.5t96 34.5q46 0 76.5 -27t30.5 -66q0 -50 -36.5 -84.5t-95.5 -34.5zM290 802q31 0 52.5 20.5t21.5 46.5q0 23 -16 37t-41 14q-32 0 -53 -20t-21 -47q0 -23 15.5 -37t41.5 -14z" />
    </font>
</defs>
</svg>
